<?xml version="1.0" standalone="no"?>
<!DOCTYPE svg PUBLIC "-//W3C//DTD SVG 1.1//EN" "http://www.w3.org/Graphics/SVG/1.1/DTD/svg11.dtd" >
<svg xmlns="http://www.w3.org/2000/svg" xmlns:xlink="http://www.w3.org/1999/xlink" version="1.1">
<metadata>
Created by FontForge 20170731 at Sun May  5 22:18:38 1996
 By Aleksey,,,
Copyright (c) 1991 Digital Typeface Corp.
</metadata>
<defs>
<font id="Serpentine-Bold" horiz-adv-x="500" >
  <font-face 
    font-family="Serpentine"
    font-weight="400"
    font-stretch="normal"
    units-per-em="1000"
    panose-1="0 0 0 0 0 0 0 0 0 0"
    ascent="800"
    descent="-200"
    x-height="493"
    cap-height="667"
    bbox="-133 -197 1373 886"
    underline-thickness="126"
    underline-position="-294"
    unicode-range="U+0020-2122"
  />
<missing-glyph horiz-adv-x="783" 
d="M48 0v783h687v-783h-687zM687 48v687h-591v-687h591z" />
    <glyph glyph-name=".notdef" horiz-adv-x="783" 
d="M48 0v783h687v-783h-687zM687 48v687h-591v-687h591z" />
    <glyph glyph-name="glyph1" horiz-adv-x="0" 
 />
    <glyph glyph-name="glyph2" horiz-adv-x="278" 
 />
    <glyph glyph-name="space" unicode=" " horiz-adv-x="278" 
 />
    <glyph glyph-name="exclam" unicode="!" horiz-adv-x="452" 
d="M352 667v-257l-22 -194h-205l-25 188v263h252zM351 178v-178h-250v178h250z" />
    <glyph glyph-name="quotedbl" unicode="&#x22;" horiz-adv-x="413" 
d="M65 399l-24 268h144l-24 -268h-96zM252 399l-24 268h145l-25 -268h-96z" />
    <glyph glyph-name="numbersign" unicode="#" horiz-adv-x="705" 
d="M614 429h-91l-40 -191h91l-24 -114h-91l-26 -119h-63l25 119h-174l-26 -119h-62l26 119h-92l24 114h92l40 191h-91l24 112h91l23 120h65l-26 -120h175l25 120h64l-26 -120h91zM245 238h174l41 191h-175z" />
    <glyph glyph-name="dollar" unicode="$" horiz-adv-x="800" 
d="M711 531q-23 15 -49.5 20.5t-58.5 5.5h-230q-22 0 -33.5 -7t-11.5 -28v-23q0 -27 11 -33.5t42 -6.5h164q88 0 132.5 -27.5t44.5 -110.5v-182q0 -77 -47.5 -108t-129.5 -31h-99v-73h-91v73h-252l-23 134q26 -15 56.5 -19.5t67.5 -4.5h20h194h19q21 0 28.5 7.5t7.5 28.5v21
q0 22 -5 31t-25 9h-188q-91 0 -134 27t-43 112v183q0 79 47.5 108.5t129.5 29.5h100v73h91v-73h241z" />
    <glyph glyph-name="percent" unicode="%" horiz-adv-x="948" 
d="M914 94q0 -48 -29.5 -71t-79.5 -23h-176q-49 0 -79 22.5t-30 71.5v184q0 48 30 71t79 23h176q49 0 79 -22.5t30 -71.5v-184zM690 308q-31 0 -40.5 -9.5t-9.5 -42.5v-141q0 -31 9.5 -41.5t40.5 -10.5h54q32 0 41 10t9 42v141q0 32 -9 42t-41 10h-54zM439 0h-51l121 667h49
zM428 389q0 -48 -30 -71t-80 -23h-175q-50 0 -80 22.5t-30 71.5v184q0 49 30 71.5t80 22.5h175q51 0 80.5 -21.5t29.5 -72.5v-184zM204 603q-31 0 -40.5 -9.5t-9.5 -42.5v-141q0 -31 9.5 -41.5t40.5 -10.5h53q32 0 41 10t9 42v141q0 32 -9 42t-41 10h-53z" />
    <glyph glyph-name="ampersand" unicode="&#x26;" horiz-adv-x="909" 
d="M697 529q-19 15 -45 22.5t-53 7.5h-116q-23 0 -39 -4.5t-16 -21.5q0 -10 4.5 -17t15.5 -21l151 -177l38 40q20 25 20 50l-1 27h108v-56q0 -23 -2.5 -35t-14.5 -26l-74 -82l71 -85q17 -19 33 -28t39 -9q30 0 60 15l-20 -129h-219q-55 0 -85 9t-55 44q-30 -32 -59.5 -42.5
t-78.5 -10.5h-160q-36 0 -61 4t-48 20.5t-40 45t-17 59.5v119q0 86 42.5 115t129.5 29l-76 88q-20 24 -30 42t-10 42q0 60 48 81.5t116 21.5h420zM281 162q0 -28 8 -39t35 -11h51q33 0 53 23l-147 169v-142z" />
    <glyph glyph-name="quotesingle" unicode="'" horiz-adv-x="226" 
d="M65 399l-24 268h144l-24 -268h-96z" />
    <glyph glyph-name="parenleft" unicode="(" horiz-adv-x="346" 
d="M333 -110h-77q-91 0 -126.5 41.5t-35.5 135.5v423q0 93 35.5 135t126.5 42h77v-78h-30q-31 0 -39 -12.5t-8 -45.5v-505q0 -33 8 -45.5t39 -12.5h30v-78z" />
    <glyph glyph-name="parenright" unicode=")" horiz-adv-x="346" 
d="M43 -32q31 0 39 12.5t8 45.5v505q0 32 -8.5 45t-38.5 13h-30v78h77q90 0 126 -42t36 -135v-423q0 -92 -35 -134.5t-127 -42.5h-77v78h30z" />
    <glyph glyph-name="asterisk" unicode="*" horiz-adv-x="356" 
d="M142 494l-73 -56q-12 14 -19.5 30t-11.5 37l79 28l-79 29q4 19 11.5 36.5t19.5 30.5l73 -57l-7 91q8 1 15.5 2.5t17.5 1.5q13 0 21 -2t12 -2l-7 -91l73 57q11 -12 18.5 -30t12.5 -37l-79 -29l79 -28q-6 -23 -12 -38t-19 -29l-73 56l7 -90q-8 -2 -15.5 -3t-17.5 -1
q-8 0 -18 1.5t-15 2.5z" />
    <glyph glyph-name="plus" unicode="+" 
d="M198 423v206h102v-206h201v-98h-201v-206h-102v206h-200v98h200z" />
    <glyph glyph-name="comma" unicode="," horiz-adv-x="396" 
d="M322 179v-170l-133 -146h-83l70 137h-103v179h249z" />
    <glyph glyph-name="hyphen" unicode="-" horiz-adv-x="422" 
d="M389 209h-355v125h355v-125z" />
    <glyph glyph-name="period" unicode="." horiz-adv-x="397" 
d="M324 178v-178h-251v178h251z" />
    <glyph glyph-name="slash" unicode="/" horiz-adv-x="297" 
d="M97 -110h-113l179 777h114z" />
    <glyph glyph-name="zero" unicode="0" horiz-adv-x="833" 
d="M611 667q88 0 129.5 -51t41.5 -140v-285q0 -43 -7 -77.5t-44 -74t-120 -39.5h-386q-89 0 -130 50.5t-41 140.5v285q0 44 7 78t44 73.5t120 39.5h386zM307 188q0 -44 11.5 -61t54.5 -17h90q43 0 54.5 17t11.5 61v291q0 44 -11.5 61t-54.5 17h-90q-43 0 -54.5 -17
t-11.5 -61v-291z" />
    <glyph glyph-name="one" unicode="1" horiz-adv-x="833" 
d="M506 667h76v-583q0 -51 33 -84h-317q16 15 25 38t9 46v379h-101v113z" />
    <glyph glyph-name="two" unicode="2" horiz-adv-x="833" 
d="M559 667q106 0 156.5 -27t50.5 -125v-129q0 -90 -41.5 -119.5t-135.5 -29.5l-207 -15q-39 -4 -47 -9.5t-8 -28.5v-74h300q49 0 79 5.5t69 25.5l-23 -141h-679v244q0 119 23 152.5t131 42.5l228 17l21 1q27 0 35 11t8 39q0 27 -10.5 38.5t-37.5 11.5h-278
q-37 0 -63.5 -6.5t-56.5 -24.5l20 141h466z" />
    <glyph glyph-name="three" unicode="3" horiz-adv-x="833" 
d="M197 397q20 -5 35.5 -6t41.5 -1h146h12q14 0 21.5 1.5t13 7t8 11.5t2.5 18v74q0 55 -55 55h-225q-42 0 -73 -5t-57 -21l21 136h471q80 0 124 -29t44 -107v-87q0 -65 -33 -79t-120 -24q71 0 112 -21.5t41 -85.5v-94q0 -79 -42 -109.5t-126 -30.5h-471l-21 139
q34 -18 71.5 -23.5t84.5 -5.5h181q43 0 58.5 9.5t15.5 48.5v64q0 33 -9 41t-41 8h-149q-28 0 -45.5 -1.5t-36.5 -7.5v125z" />
    <glyph glyph-name="four" unicode="4" horiz-adv-x="833" 
d="M826 320v-175h-129v-61q0 -26 7.5 -46.5t25.5 -37.5h-317q16 15 25 38t9 46v61h-440v159l398 363h292v-347h129zM447 546l-261 -226h261v226z" />
    <glyph glyph-name="five" unicode="5" horiz-adv-x="833" 
d="M745 667l20 -137q-21 18 -47 22.5t-62 4.5h-330v-133h262q83 0 125 -31.5t42 -111.5v-132q0 -149 -153 -149h-513l-21 149q33 -26 61 -32.5t81 -6.5h226q34 0 52.5 8t18.5 37v105q0 36 -13.5 45t-51.5 9h-247q-41 0 -67 -6t-52 -27l13 386h656z" />
    <glyph glyph-name="six" unicode="6" horiz-adv-x="833" 
d="M747 532q-26 17 -54 21t-74 4h-226h-16q-31 0 -43.5 -16t-12.5 -48v-93q7 21 19.5 27t37.5 6h245q77 0 108.5 -36t31.5 -115v-115q0 -91 -47 -129t-142 -38h-302q-105 0 -153.5 39t-48.5 144v312q0 104 49.5 138t154.5 34h451zM511 260q0 39 -9.5 52t-46.5 13h-78
q-36 0 -46 -13.5t-10 -51.5v-85q0 -39 9.5 -52t46.5 -13h78q36 0 46 13.5t10 51.5v85z" />
    <glyph glyph-name="seven" unicode="7" horiz-adv-x="833" 
d="M749 667l9 -110q-120 -128 -203.5 -269.5t-108.5 -287.5h-287q26 90 80.5 188t123 192t140.5 177h-289q-50 0 -77 -4t-57 -23l21 137h648z" />
    <glyph glyph-name="eight" unicode="8" horiz-adv-x="833" 
d="M763 142q0 -75 -48.5 -108.5t-126.5 -33.5h-343q-79 0 -126.5 32.5t-47.5 109.5q0 133 25.5 167.5t148.5 34.5q-123 0 -148.5 33.5t-25.5 165.5q0 60 37.5 92t147.5 32h321q111 0 148.5 -31.5t37.5 -92.5v-76q0 -79 -42 -101t-133 -22q124 0 149.5 -34.5t25.5 -167.5z
M376 557q-29 0 -42 -10t-13 -38v-55q0 -34 12 -44t46 -10h75q35 0 47 10t12 44v55q0 27 -13.5 37.5t-42.5 10.5h-81zM384 291q-41 0 -52 -10t-11 -50v-64q0 -29 9.5 -43t37.5 -14h98q28 0 37.5 14t9.5 43v64q0 32 -9.5 46t-42.5 14h-12h-65z" />
    <glyph glyph-name="nine" unicode="9" horiz-adv-x="833" 
d="M80 132q25 -14 50.5 -18t64.5 -4h20h211q42 0 64.5 8.5t22.5 43.5v118q-10 -30 -29.5 -40.5t-53.5 -10.5h-205q-85 0 -119.5 33.5t-34.5 118.5v128q0 77 34.5 117.5t110.5 40.5h350q100 0 148.5 -35t48.5 -133v-334v-27q0 -73 -43.5 -105.5t-119.5 -32.5h-501zM457 337
q38 0 47 12.5t9 53.5v88q0 40 -9.5 53t-46.5 13h-79q-38 0 -47 -12.5t-9 -53.5v-88q0 -40 9.5 -53t46.5 -13h79z" />
    <glyph glyph-name="colon" unicode=":" horiz-adv-x="397" 
d="M324 471v-178h-251v178h251zM324 178v-178h-251v178h251z" />
    <glyph glyph-name="semicolon" unicode=";" horiz-adv-x="397" 
d="M323 179v-170l-133 -146h-83l69 137h-102v179h249zM324 471v-178h-251v178h251z" />
    <glyph glyph-name="less" unicode="&#x3c;" 
d="M466 462l-202 -123l201 -124l1 -216l-433 250v181l433 249v-217z" />
    <glyph glyph-name="equal" unicode="=" 
d="M502 501v-95h-504v95h504zM502 342v-95h-504v95h504z" />
    <glyph glyph-name="greater" unicode="&#x3e;" 
d="M33 216l203 124l-202 124l-1 215l433 -249v-182l-433 -249v217z" />
    <glyph glyph-name="question" unicode="?" horiz-adv-x="820" 
d="M217 211l-1 90q0 121 121 121h79q36 0 51 9.5t15 43.5v32q0 30 -10.5 40.5t-40.5 10.5h-254q-37 0 -61.5 -4.5t-49.5 -21.5l19 135h468q85 0 132.5 -28t47.5 -107v-70q0 -70 -37 -111t-108 -41h-59q-44 0 -54 -11t-10 -55v-33h-248zM468 178v-178h-251v178h251z" />
    <glyph glyph-name="at" unicode="@" horiz-adv-x="733" 
d="M563 493l-37 -191q-4 -15 -5.5 -26.5t-1.5 -17.5q0 -15 5 -23.5t17 -8.5q36 0 59.5 56.5t23.5 97.5q0 104 -67 162.5t-173 58.5q-107 0 -187 -79t-80 -187q0 -118 69.5 -193.5t185.5 -75.5q52 0 101.5 7t97.5 23l21 -81q-47 -15 -105.5 -22.5t-114.5 -7.5
q-148 0 -245 100t-97 250q0 141 105 244t246 103t231.5 -85t90.5 -225q0 -75 -46.5 -147t-118.5 -72q-26 0 -49 14.5t-30 39.5q-20 -29 -55 -46t-71 -17q-58 0 -99.5 44.5t-41.5 102.5q0 83 49.5 148t130.5 65q28 0 53.5 -12.5t40.5 -35.5l7 37h90zM381 408q-37 0 -62 -33
t-25 -71q0 -30 18.5 -49.5t47.5 -19.5q38 0 60.5 34.5t22.5 74.5q0 27 -17.5 45.5t-44.5 18.5z" />
    <glyph glyph-name="A" unicode="A" horiz-adv-x="841" 
d="M569 667l234 -589q17 -40 52 -78h-336q17 20 17 45q0 32 -18.5 71t-29.5 64h-273l-42 -91q-5 -11 -8.5 -21.5t-3.5 -21.5q0 -10 3.5 -22t9.5 -24h-187q22 26 42.5 58t37.5 67l235 502q-11 24 -27 40h294zM358 495l-93 -207h178z" />
    <glyph glyph-name="B" unicode="B" horiz-adv-x="804" 
d="M764 230v-92q0 -80 -46 -109t-131 -29h-540q14 20 21 46.5t7 52.5v469q0 30 -6.5 53.5t-21.5 45.5h540q84 0 130.5 -29t46.5 -110v-66q0 -72 -39 -94.5t-120 -22.5q79 0 119 -21.5t40 -93.5zM466 394q33 0 43 15.5t10 49.5v26q0 45 -10.5 58.5t-35.5 13.5h-145v-163h138z
M453 110q34 0 50 10.5t16 41.5v66q0 35 -11.5 45.5t-48.5 10.5h-131v-174h125z" />
    <glyph glyph-name="C" unicode="C" horiz-adv-x="653" 
d="M632 529q-26 18 -54.5 23t-70.5 5h-139q-51 0 -63 -15.5t-12 -69.5v-282q0 -49 19 -64.5t69 -15.5h132q36 0 66.5 4.5t60.5 16.5l-20 -131h-409q-86 0 -128.5 52t-42.5 139v285q0 88 42 139.5t129 51.5h397z" />
    <glyph glyph-name="D" unicode="D" horiz-adv-x="807" 
d="M74 99v469q0 30 -6.5 53.5t-21.5 45.5h550q88 0 129.5 -51t41.5 -140v-285q0 -89 -40.5 -140t-130.5 -51h-550q14 20 21 46.5t7 52.5zM448 110q42 0 53.5 17t11.5 61v291q0 45 -11 61.5t-54 16.5h-121v-447h121z" />
    <glyph glyph-name="E" unicode="E" horiz-adv-x="683" 
d="M341 395h204q32 0 51.5 2.5t43.5 12.5v-141q-15 11 -33.5 14.5t-42.5 3.5h-223v-177h247q18 0 34 3.5t61 19.5l-22 -133h-601q14 20 21 46.5t7 52.5v469q0 30 -6.5 53.5t-21.5 45.5h587l19 -126q-25 9 -53.5 12.5t-63.5 3.5h-208v-162z" />
    <glyph glyph-name="F" unicode="F" horiz-adv-x="650" 
d="M328 396h222q45 0 85 17v-147q-23 11 -50 15.5t-57 4.5h-200v-187q0 -30 6.5 -53.5t21.5 -45.5h-309q14 20 21 46.5t7 52.5v469q0 30 -6.5 53.5t-21.5 45.5h584l20 -126q-24 9 -55.5 12.5t-65.5 3.5h-18h-184v-161z" />
    <glyph glyph-name="G" unicode="G" horiz-adv-x="775" 
d="M733 537q-23 13 -48 16.5t-60 3.5h-253q-43 0 -54.5 -17t-11.5 -61v-291q0 -44 11.5 -61t54.5 -17h72q34 0 43 15t9 52v115h-63q-24 0 -41.5 -3t-38.5 -12v121h422q-15 -21 -21.5 -45.5t-6.5 -53.5v-200q0 -29 6.5 -53.5t21.5 -45.5h-221q-4 16 -7 37.5t-5 35.5
q0 -47 -30.5 -60t-88.5 -13h-193q-84 0 -130.5 29.5t-46.5 109.5v390q0 79 47.5 108.5t129.5 29.5h481z" />
    <glyph glyph-name="H" unicode="H" horiz-adv-x="823" 
d="M315 285v-186q0 -30 6.5 -53.5t21.5 -45.5h-309q14 20 21 46.5t7 52.5v469q0 30 -6.5 53.5t-21.5 45.5h309q-14 -20 -21 -46.5t-7 -52.5v-172h194v172q0 30 -6.5 53.5t-21.5 45.5h309q-14 -20 -21 -46.5t-7 -52.5v-469q0 -30 6.5 -53.5t21.5 -45.5h-309q14 20 21 46.5
t7 52.5v186h-194z" />
    <glyph glyph-name="I" unicode="I" horiz-adv-x="376" 
d="M342 667q-14 -20 -21 -46.5t-7 -52.5v-469q0 -30 6.5 -53.5t21.5 -45.5h-309q14 20 21 46.5t7 52.5v469q0 30 -6.5 53.5t-21.5 45.5h309z" />
    <glyph glyph-name="J" unicode="J" horiz-adv-x="619" 
d="M-27 132q17 -11 40.5 -16.5t70.5 -5.5h141q43 0 54.5 17t11.5 61v380q0 29 -6.5 53.5t-21.5 45.5h309q-14 -20 -21 -46.5t-7 -52.5v-377q0 -43 -7 -77.5t-43.5 -74t-119.5 -39.5h-381z" />
    <glyph glyph-name="K" unicode="K" horiz-adv-x="852" 
d="M512 577q14 15 22 31.5t8 33.5q0 7 -4 25h221q-29 -15 -55 -38.5t-52 -53.5l-92 -104l196 -333q45 -79 96 -138h-308l-153 282l-64 -74v-109q0 -29 6.5 -53.5t21.5 -45.5h-309q14 20 21 46.5t7 52.5v469q0 30 -6.5 53.5t-21.5 45.5h309q-15 -21 -21.5 -45.5t-6.5 -53.5
v-201z" />
    <glyph glyph-name="L" unicode="L" horiz-adv-x="651" 
d="M630 0h-583q14 20 21 46.5t7 52.5v469q0 30 -6.5 53.5t-21.5 45.5h310q-15 -21 -21.5 -45.5t-6.5 -53.5v-458h238q26 0 45.5 5.5t38.5 19.5z" />
    <glyph glyph-name="M" unicode="M" horiz-adv-x="1035" 
d="M646 667h342q-15 -21 -21.5 -45.5t-6.5 -53.5v-469q0 -29 6.5 -53.5t21.5 -45.5h-309q14 20 21 46.5t7 52.5v408l-173 -507h-180l-170 507v-408q0 -29 6.5 -53.5t21.5 -45.5h-166q14 20 21 46.5t7 52.5v469q0 30 -6.5 53.5t-21.5 45.5h342l128 -381z" />
    <glyph glyph-name="N" unicode="N" horiz-adv-x="850" 
d="M666 135v433q0 30 -6.5 53.5t-21.5 45.5h166q-15 -21 -21.5 -45.5t-6.5 -53.5v-568h-323l-268 542v-443q0 -30 6.5 -53.5t21.5 -45.5h-166q14 20 21 46.5t7 52.5v469q0 30 -6.5 53.5t-21.5 45.5h362z" />
    <glyph glyph-name="O" unicode="O" horiz-adv-x="808" 
d="M597 667q88 0 129.5 -51t41.5 -140v-285q0 -43 -7 -77.5t-44 -74t-120 -39.5h-386q-89 0 -130 50.5t-41 140.5v285q0 44 7 78t44 73.5t120 39.5h386zM293 188q0 -44 11.5 -61t54.5 -17h90q43 0 54.5 17t11.5 61v291q0 44 -11.5 61t-54.5 17h-90q-43 0 -54.5 -17
t-11.5 -61v-291z" />
    <glyph glyph-name="P" unicode="P" horiz-adv-x="781" 
d="M328 99q0 -30 6.5 -53.5t21.5 -45.5h-309q14 20 21 46.5t7 52.5v469q0 30 -6.5 53.5t-21.5 45.5h550q85 0 131 -28.5t46 -110.5v-151q0 -80 -46 -109t-131 -29h-269v-140zM456 349q44 0 54.5 16t10.5 62v70q0 33 -10 46.5t-42 13.5h-141v-208h128z" />
    <glyph glyph-name="Q" unicode="Q" horiz-adv-x="809" 
d="M500 -88l-49 88h-240q-38 0 -74 13.5t-58.5 39t-30.5 61t-8 77.5v285q0 43 7 77.5t44 74t120 39.5h387q88 0 129.5 -51t41.5 -140v-285q0 -109 -51.5 -150t-165.5 -41l48 -88h-100zM489 112q12 7 19.5 23.5t7.5 49.5v11v283q0 44 -11.5 61t-54.5 17h-91q-43 0 -54.5 -17
t-11.5 -61v-291q0 -44 11.5 -61t54.5 -17h31l-51 94h98z" />
    <glyph glyph-name="R" unicode="R" horiz-adv-x="817" 
d="M328 284v-185q0 -30 6.5 -53.5t21.5 -45.5h-309q14 20 21 46.5t7 52.5v469q0 30 -6.5 53.5t-21.5 45.5h549q84 0 130.5 -29t46.5 -110v-143q0 -51 -19 -76.5t-64 -25.5l-15 1l91 -193q13 -28 24 -48t27 -43h-293l-117 284h-79zM470 394q33 0 42.5 11.5t9.5 46.5v43
q0 38 -9.5 50t-49.5 12h-135v-163h142z" />
    <glyph glyph-name="S" unicode="S" horiz-adv-x="737" 
d="M679 531q-22 15 -48.5 20.5t-59.5 5.5h-230q-22 0 -33.5 -7t-11.5 -28v-23q0 -27 11 -33.5t42 -6.5h164q89 0 133 -27.5t44 -111.5v-182q0 -78 -47.5 -108t-129.5 -30h-442l-23 134q26 -15 56.5 -19.5t67.5 -4.5h20h194h19q21 0 28.5 7.5t7.5 27.5v21q0 22 -5.5 31.5
t-24.5 9.5h-188q-91 0 -134 26.5t-43 111.5v183q0 78 48 108.5t129 30.5h432z" />
    <glyph glyph-name="T" unicode="T" horiz-adv-x="665" 
d="M178 0q15 21 21.5 45.5t6.5 53.5v458h-117q-29 0 -49 -3.5t-40 -16.5l20 130h625l20 -130q-20 13 -38.5 16.5t-50.5 3.5h-118v-458q0 -30 6.5 -53.5t21.5 -45.5h-308z" />
    <glyph glyph-name="U" unicode="U" horiz-adv-x="850" 
d="M356 667q-14 -20 -21 -46.5t-7 -52.5v-380q0 -44 11.5 -61t54.5 -17h206q42 0 53.5 17t11.5 61v380q0 29 -6.5 53.5t-21.5 45.5h166q-14 -20 -21 -46.5t-7 -52.5v-377q0 -47 -7.5 -77.5t-32 -58.5t-58.5 -41.5t-72 -13.5h-359q-86 0 -128.5 52t-42.5 139v377
q0 30 -6.5 53.5t-21.5 45.5h309z" />
    <glyph glyph-name="V" unicode="V" horiz-adv-x="780" 
d="M616 562q4 11 9 29.5t5 41.5q0 14 -5 34h169q-22 -20 -37.5 -49.5t-29.5 -67.5l-211 -550h-279l-201 566q-12 33 -22 54t-27 47h311q-7 -21 -7 -36q0 -18 3 -31.5t12 -39.5l150 -423z" />
    <glyph glyph-name="W" unicode="W" horiz-adv-x="1097" 
d="M432 0h-248l-150 565q-8 31 -17 55t-24 47h305q-5 -14 -7.5 -23t-2.5 -20q0 -28 10 -65l83 -324l112 432h261l115 -432l82 321q4 14 6 32.5t2 37.5q0 20 -8 41h159q-18 -20 -26 -41.5t-19 -63.5l-147 -562h-254l-117 441z" />
    <glyph glyph-name="X" unicode="X" horiz-adv-x="803" 
d="M729 98q33 -42 47 -59t40 -39h-357q1 9 3 18q0 23 -8.5 39.5t-30.5 45.5l-82 111l-138 -145q-18 -20 -27.5 -34.5t-12.5 -34.5h-189q49 39 84 77l217 230l-197 261q-27 38 -45 57.5t-46 41.5h365q0 -29 10.5 -53t32.5 -53l64 -86l109 111q18 18 30 38t17 43h201
q-24 -15 -44 -31.5t-44 -41.5l-204 -211z" />
    <glyph glyph-name="Y" unicode="Y" horiz-adv-x="762" 
d="M572 572q11 17 17.5 36t6.5 38l-1 21h180q-21 -14 -35 -33.5t-36 -56.5l-199 -323v-155q0 -30 6.5 -53.5t21.5 -45.5h-307q14 20 21 46.5t7 52.5v155l-194 307q-27 45 -41 65t-33 41h335q0 -32 10.5 -55t24.5 -46l106 -171z" />
    <glyph glyph-name="Z" unicode="Z" horiz-adv-x="702" 
d="M357 110h200q32 0 56.5 3.5t46.5 14.5l-18 -128h-642l341 557h-169q-41 0 -69.5 -5t-54.5 -21l22 136h632z" />
    <glyph glyph-name="bracketleft" unicode="[" horiz-adv-x="346" 
d="M333 -110h-239v777h239v-78h-77v-621h77v-78z" />
    <glyph glyph-name="backslash" unicode="\" horiz-adv-x="297" 
d="M134 667l179 -777h-113l-180 777h114z" />
    <glyph glyph-name="bracketright" unicode="]" horiz-adv-x="346" 
d="M90 -32v621h-77v78h239v-777h-239v78h77z" />
    <glyph glyph-name="asciicircum" unicode="^" 
d="M-1 328l130 345h241l130 -345h-189l-61 198l-62 -198h-189z" />
    <glyph glyph-name="underscore" unicode="_" 
d="M500 -42v-126h-500v126h500z" />
    <glyph glyph-name="grave" unicode="`" 
d="M298 689l66 -162h-133l-94 162h161z" />
    <glyph glyph-name="a" unicode="a" horiz-adv-x="740" 
d="M520 493l24 1q62 0 102 -39t40 -102v-229q2 -43 4 -70.5t16 -53.5h-237q-7 12 -10 24.5t-5 27.5q-8 -28 -32 -40t-57 -12h-180q-77 0 -114.5 30t-37.5 106v84q0 55 35 84t90 29h230h16q21 0 31.5 7t10.5 26q0 22 -13.5 28t-39.5 6h-234q-33 0 -55.5 -4.5t-47.5 -18.5
l16 116h448zM331 241q-34 0 -45.5 -14t-11.5 -49v-22q0 -33 12 -48t45 -15h59q34 0 45.5 14t11.5 49v85h-116z" />
    <glyph glyph-name="b" unicode="b" horiz-adv-x="744" 
d="M301 459q11 19 30.5 26.5t45.5 7.5h176q75 0 116 -34.5t41 -109.5v-185q0 -85 -40.5 -124.5t-126.5 -39.5h-157q-36 0 -59 9t-36 37l-9 -46h-242q10 18 14.5 40.5t4.5 47.5l1 36v419l-1 36q0 28 -3.5 47.5t-15.5 40.5h261v-208zM301 140q0 -26 14 -36.5t41 -10.5h59
q30 0 42 12t12 42v199q0 31 -11.5 42.5t-42.5 11.5h-59q-28 0 -41.5 -10t-13.5 -36v-214z" />
    <glyph glyph-name="c" unicode="c" horiz-adv-x="600" 
d="M587 375q-21 14 -44.5 19.5t-53.5 5.5h-146q-36 0 -52 -11.5t-16 -45.5v-198q0 -32 18 -42t52 -10h138q31 0 54.5 6t49.5 22l-20 -121h-361q-14 0 -33 2t-36 4q-46 10 -75 47t-29 84v223q0 68 47.5 100.5t118.5 32.5h368z" />
    <glyph glyph-name="d" unicode="d" horiz-adv-x="744" 
d="M683 124q0 -46 3 -71.5t17 -52.5h-228l-11 45q-15 -27 -40 -36t-62 -9h-171q-76 0 -117 33.5t-41 109.5v214q0 59 35.5 97.5t94.5 38.5h197q57 0 82 -45v95v21v36q-3 16 -4.5 26t-4.5 18t-11 23h261v-543zM388 93q32 0 43 15.5t11 49.5v183v12q0 24 -13.5 35.5
t-37.5 11.5h-66q-51 0 -51 -56v-198q0 -30 14.5 -41.5t44.5 -11.5h55z" />
    <glyph glyph-name="e" unicode="e" horiz-adv-x="714" 
d="M274 199v-41q0 -41 15.5 -53t58.5 -12h219q32 0 57.5 4.5t48.5 18.5l-18 -116h-439q-95 0 -138.5 36t-43.5 131v159q0 89 40 128t128 39h303q94 0 135 -35.5t41 -129.5v-129h-407zM443 346q0 35 -9.5 44.5t-29.5 9.5h-95q-20 0 -27.5 -11.5t-7.5 -36.5v-59h169v53z" />
    <glyph glyph-name="f" unicode="f" horiz-adv-x="477" 
d="M469 400h-166v-276v-39t3.5 -40.5t16.5 -44.5h-282q13 23 16.5 49.5t3.5 63.5v11v276h-68v93h68v38q0 60 37 98t98 38h44h271l19 -116q-35 21 -75 21h-104q-27 0 -37.5 -10.5t-10.5 -37.5v-31h166v-93z" />
    <glyph glyph-name="g" unicode="g" horiz-adv-x="748" 
d="M708 493q-13 -21 -16.5 -45.5t-3.5 -58.5v-20v-369q0 -115 -48 -153.5t-169 -38.5h-395l-17 123q21 -17 46.5 -22t62.5 -5h23h179q35 0 55 10t20 42v80q-12 -24 -34.5 -30t-58.5 -6h-144q-83 0 -129 31.5t-46 111.5v208q0 67 39.5 104.5t106.5 37.5h200q32 0 50 -6.5
t34 -30.5l8 37h237zM394 93q32 0 41.5 12t9.5 46v190q0 36 -9 47.5t-43 11.5h-74q-12 0 -19 -1.5t-13 -8.5t-8 -18.5t-2 -22.5v-8v-190q0 -28 11.5 -43t38.5 -15h67z" />
    <glyph glyph-name="h" unicode="h" horiz-adv-x="766" 
d="M302 464q10 17 24.5 23t35.5 6h189q77 0 119.5 -36t42.5 -113v-220v-39t2.5 -36t6 -25.5t11.5 -23.5h-281q13 23 16.5 49.5t3.5 63.5v11v217q0 26 -9.5 42.5t-45.5 16.5h-66q-49 0 -49 -54v-222q0 -20 0.5 -39t3.5 -40t16 -45h-282q13 23 16.5 49.5t3.5 63.5v11v419v21
v36q-3 16 -4.5 26t-4.5 18t-11 23h262v-203z" />
    <glyph glyph-name="i" unicode="i" horiz-adv-x="362" 
d="M302 542h-242v125h242v-125zM302 124v-39t2.5 -36t6 -25.5t11.5 -23.5h-282q13 23 16.5 49.5t3.5 63.5v11v245v21v37q-3 15 -5 30t-15 36h262v-369z" />
    <glyph glyph-name="j" unicode="j" horiz-adv-x="409" 
d="M369 -15q0 -98 -35.5 -136.5t-133.5 -38.5h-20h-295l-18 128q25 -21 49.5 -27t65.5 -6h84q41 0 51.5 16t10.5 61v387v21q0 30 -2 50.5t-6 29t-12 23.5h261v-508zM369 542h-242v124h242v-124z" />
    <glyph glyph-name="k" unicode="k" horiz-adv-x="767" 
d="M300 194v-70q0 -20 0.5 -39t3.5 -40t16 -45h-281q13 23 16.5 49.5t3.5 63.5v11v419v21v36q-3 16 -4.5 26t-4.5 18t-11 23h261v-351l127 105q18 15 30.5 34t12.5 38h223q-47 -20 -83.5 -45.5t-81.5 -66.5l165 -288q29 -52 73 -93h-299l-121 230z" />
    <glyph glyph-name="l" unicode="l" horiz-adv-x="361" 
d="M301 124q0 -20 0.5 -39t3.5 -40t16 -45h-281q13 23 16.5 49.5t3.5 63.5v11v419v21v36q-3 16 -4.5 26t-4.5 18t-11 23h261v-543z" />
    <glyph glyph-name="m" unicode="m" horiz-adv-x="1177" 
d="M291 445q7 28 21 38t45 10h251q50 0 68 -11.5t26 -36.5q7 28 22 38t46 10h197q89 0 123 -43.5t34 -134.5v-191v-36q0 -39 3.5 -54.5t13.5 -33.5h-282q13 21 16.5 45.5t3.5 58.5v20v213q0 34 -10 48.5t-42 14.5h-61q-35 0 -45 -11t-10 -47v-218q0 -20 0.5 -39t3.5 -40
t16 -45h-283q13 23 16.5 49.5t3.5 63.5v11v214q0 30 -9 46t-37 16h-73q-27 0 -36.5 -14t-9.5 -42v-220q0 -46 3 -71.5t17 -52.5h-283q13 23 16.5 49.5t3.5 63.5v11v245v21v37q-3 15 -5 30t-15 36h244z" />
    <glyph glyph-name="n" unicode="n" horiz-adv-x="764" 
d="M286 444q15 28 34.5 38.5t53.5 10.5h180q77 0 116.5 -42.5t39.5 -120.5v-206q0 -46 3 -71.5t17 -52.5h-282q13 21 16.5 45.5t3.5 58.5v20v215q0 33 -9.5 47t-41.5 14h-73q-43 0 -43 -48v-228q0 -46 3 -71.5t17 -52.5h-281q13 23 16.5 49.5t3.5 63.5v11v245v21v37
q-3 15 -5 30t-15 36h236z" />
    <glyph glyph-name="o" unicode="o" horiz-adv-x="735" 
d="M519 493q92 0 137.5 -33.5t45.5 -122.5v-196q0 -68 -36 -105t-106 -37l-24 1h-313q-93 0 -141 29.5t-48 117.5v209q0 60 40 99t100 39l27 -1h318zM277 151q0 -33 12.5 -45.5t45.5 -12.5h68q32 0 44.5 14.5t12.5 46.5v184q0 34 -15 48t-52 14h-58q-58 0 -58 -55v-194z" />
    <glyph glyph-name="p" unicode="p" horiz-adv-x="739" 
d="M56 370v21v36q-3 16 -4.5 26t-4.5 18t-11 23h231l11 -45q16 27 40 36t61 9h172q75 0 115 -34.5t40 -109.5v-213q0 -62 -33.5 -99.5t-95.5 -37.5h-198q-57 0 -82 46v-95q0 -46 3 -71.5t17 -52.5h-261v543zM411 94q33 0 43.5 15t10.5 50v183v13q0 45 -51 45h-66
q-51 0 -51 -56v-198q0 -29 14.5 -40.5t45.5 -11.5h54z" />
    <glyph glyph-name="q" unicode="q" horiz-adv-x="744" 
d="M442 35q-11 -19 -30 -27t-45 -8h-177q-74 0 -115.5 35.5t-41.5 109.5v184q0 85 41 125t127 40h157q34 0 58 -10.5t37 -36.5l8 47h243q-13 -23 -16.5 -49.5t-3.5 -63.5v-11v-419q0 -20 0.5 -39t3.5 -40t16 -45h-262v208zM442 354q0 25 -13.5 35.5t-40.5 10.5h-60
q-30 0 -41.5 -11.5t-11.5 -42.5v-198q0 -30 11 -42t42 -12h60q27 0 40.5 10t13.5 36v214z" />
    <glyph glyph-name="r" unicode="r" horiz-adv-x="533" 
d="M285 412q16 49 44 65t83 16h121v-163q-18 18 -42.5 23.5t-58.5 5.5h-49q-38 0 -60 -18.5t-22 -55.5v-161q0 -46 3 -71.5t17 -52.5h-281q13 23 16.5 49.5t3.5 63.5v11v245v21v37q-3 15 -5 30t-15 36h239z" />
    <glyph glyph-name="s" unicode="s" horiz-adv-x="689" 
d="M648 369q-28 21 -52.5 26t-68.5 5h-205h-11q-15 0 -24 -4t-9 -18q0 -11 8.5 -17.5t20.5 -6.5l12 1h190q74 0 110.5 -32.5t36.5 -105.5v-70q0 -79 -48 -113t-131 -34h-422l-22 126q41 -21 66.5 -27t72.5 -6h211q20 0 32 5t12 23q0 15 -11 20.5t-27 5.5h-214
q-128 0 -128 130v78q0 82 55 110t145 28h378z" />
    <glyph glyph-name="t" unicode="t" horiz-adv-x="550" 
d="M520 400h-204v-229q0 -48 12 -62.5t60 -14.5h65q28 0 52.5 5.5t44.5 20.5l-19 -120h-255q-101 0 -151 29.5t-50 123.5v44v203h-75v93h75v101l241 10v-111h204v-93z" />
    <glyph glyph-name="u" unicode="u" horiz-adv-x="766" 
d="M706 124v-39t2.5 -36t6 -25.5t11.5 -23.5h-228l-10 46q-12 -29 -32.5 -37.5t-57.5 -8.5h-186q-92 0 -125 38.5t-33 132.5v198v21v37q-3 15 -5 30t-15 36h261v-334q0 -34 10.5 -50t42.5 -16h58q35 0 47 12t12 48v216q0 45 -2.5 68t-6.5 33t-11 23h261v-369z" />
    <glyph glyph-name="v" unicode="v" horiz-adv-x="668" 
d="M530 399q11 26 15.5 40.5t4.5 33.5q0 5 -1 10l-2 10h134q-12 -18 -24 -42.5t-24 -53.5l-162 -397h-265l-183 427q-6 15 -16 32.5t-20 33.5h295l-1 -19q0 -17 3 -27t13 -33l121 -285z" />
    <glyph glyph-name="w" unicode="w" horiz-adv-x="970" 
d="M703 493l78 -303l44 179q4 15 7 33.5t3 34.5q0 15 -2.5 30t-7.5 26h151q-20 -20 -30.5 -42.5t-19.5 -57.5l-101 -393h-247l-99 379l-97 -379h-248l-104 410q-12 45 -37 83h296q-5 -14 -7.5 -23t-2.5 -20q0 -21 1.5 -32.5t8.5 -38.5l47 -189l76 303h291z" />
    <glyph glyph-name="x" unicode="x" horiz-adv-x="724" 
d="M647 93q33 -40 49 -58t42 -35h-347q-7 38 -39 74.5t-52 60.5l-106 -91q-13 -11 -20 -20.5t-12 -23.5h-175q35 22 61.5 43.5t50.5 42.5l140 122l-141 177q-49 62 -95 108h337q7 -28 36 -64q35 -40 49 -58q34 28 74.5 62.5t49.5 59.5h167q-22 -14 -37.5 -27t-54.5 -48
l-139 -123z" />
    <glyph glyph-name="y" unicode="y" horiz-adv-x="747" 
d="M295 170q0 -44 12 -60.5t53 -16.5h62q34 0 39 25.5t5 47.5v203v15q0 37 -3.5 60.5t-16.5 48.5h261v-493l1 -30q0 -105 -52 -132t-169 -27h-401l-19 119q25 -14 51.5 -18t66.5 -4h11h216q35 0 44.5 14.5t9.5 52.5v57q-13 -20 -36 -26t-56 -6h-140q-101 0 -141 47t-40 151
v171v21v37q-3 15 -5 28.5t-15 37.5h262v-323z" />
    <glyph glyph-name="z" unicode="z" horiz-adv-x="668" 
d="M372 93h173q38 0 66.5 5.5t56.5 22.5l-17 -121h-651l295 400h-145q-59 0 -86 -6t-57 -20l17 119h635z" />
    <glyph glyph-name="braceleft" unicode="{" 
d="M307 113v-123q0 -43 14 -56t55 -13h27v-114l-63 -2q-84 0 -125 30.5t-41 113.5v154q0 37 -11.5 58.5t-43.5 27.5v110q30 7 42.5 25.5t12.5 50.5v155q0 83 40.5 113.5t125.5 30.5l63 -2v-115l-14 1q-15 0 -29.5 -0.5t-29.5 -5.5t-19 -18t-4 -33v-12v-123q0 -48 -11.5 -74
t-49.5 -53q34 -21 47.5 -51.5t13.5 -74.5z" />
    <glyph glyph-name="bar" unicode="|" 
d="M360 666v-833h-220v833h220z" />
    <glyph glyph-name="braceright" unicode="}" 
d="M193 366v123q0 42 -13.5 55.5t-53.5 13.5h-29v114l63 2q85 0 125.5 -29.5t40.5 -113.5v-155q0 -37 11.5 -58.5t43.5 -27.5v-110q-30 -7 -42.5 -25.5t-12.5 -50.5v-155q0 -82 -40.5 -113t-125.5 -31l-63 2v115h29q41 0 54 14t13 55v123q0 46 12.5 73t48.5 53
q-36 23 -48.5 51.5t-12.5 74.5z" />
    <glyph glyph-name="asciitilde" unicode="~" horiz-adv-x="667" 
d="M91 613q35 92 74 125.5t88 33.5q29 0 89.5 -23.5t80.5 -23.5q19 0 29.5 12.5t23.5 37.5l103 -87q-38 -94 -76 -128t-86 -34q-30 0 -86 24t-88 24q-13 0 -23.5 -10t-25.5 -39z" />
    <glyph glyph-name="asciitilde" unicode="&#x2dc;" horiz-adv-x="667" 
d="M91 613q35 92 74 125.5t88 33.5q29 0 89.5 -23.5t80.5 -23.5q19 0 29.5 12.5t23.5 37.5l103 -87q-38 -94 -76 -128t-86 -34q-30 0 -86 24t-88 24q-13 0 -23.5 -10t-25.5 -39z" />
    <glyph glyph-name="nonbreakingspace" unicode="&#xa0;" horiz-adv-x="250" 
 />
    <glyph glyph-name="exclamdown" unicode="&#xa1;" horiz-adv-x="452" 
d="M100 262l25 189h205l22 -194v-257h-252v262zM351 667v-178h-250v178h250z" />
    <glyph glyph-name="cent" unicode="&#xa2;" horiz-adv-x="572" 
d="M329 667v-107h183l20 -125q-21 23 -42.5 30t-57.5 7h-116h-21q-19 0 -28.5 -8.5t-9.5 -43.5v-182q0 -21 12.5 -30.5t35.5 -9.5h24h105q31 0 53 6.5t43 25.5l-20 -117h-181v-113h-91v113q-114 0 -156 24t-42 128v176q0 61 34 90t96 29h68v107h91z" />
    <glyph glyph-name="sterling" unicode="&#xa3;" horiz-adv-x="800" 
d="M755 190q0 -103 -28.5 -146.5t-137.5 -43.5h-40h-504v110q87 17 143.5 42.5t56.5 86.5q0 25 -18.5 44.5t-44.5 31.5h-130v74h45q-18 23 -24 50.5t-6 65.5q0 90 45.5 126t137.5 36h308q109 0 153 -38.5t44 -147.5h-249v18q0 32 -8 45t-38 13h-78q-34 0 -48.5 -10
t-14.5 -27q0 -18 9 -30t29 -30l80 -71h244v-74h-201q6 -19 7.5 -27t1.5 -23q0 -64 -40 -102.5t-106 -52.5h103q36 0 48 8.5t12 42.5v29h249z" />
    <glyph glyph-name="currency" unicode="&#xa4;" horiz-adv-x="740" 
d="M130 215q-28 61 -28 125q0 30 9 63.5t23 62.5l-110 110l111 111l113 -113q62 28 130 28q57 0 113 -27l112 111l110 -111l-107 -108q34 -60 34 -128q0 -67 -28 -124l107 -107l-110 -111l-106 106q-63 -34 -135 -34q-64 0 -129 34l-107 -105l-110 109zM292 340
q0 -33 23.5 -57.5t55.5 -24.5q34 0 57 24t23 58q0 32 -23.5 55.5t-56.5 23.5t-56 -23t-23 -56z" />
    <glyph glyph-name="yen" unicode="&#xa5;" horiz-adv-x="687" 
d="M230 205h-217v80h188l-45 83h-136v78h93l-122 216l239 1l112 -244l109 248h244l-124 -221h93v-78h-136l-47 -83h188v-80h-215v-205h-224v205z" />
    <glyph glyph-name="brokenbar" unicode="&#xa6;" 
d="M360 666v-368h-220v368h220zM360 153v-320h-220v320h220z" />
    <glyph glyph-name="section" unicode="&#xa7;" horiz-adv-x="362" 
d="M302 124v-39t2.5 -36t6 -25.5t11.5 -23.5h-282q13 23 16.5 49.5t3.5 63.5v11v245v21v37q-3 15 -5 30t-15 36h262v-369z" />
    <glyph glyph-name="dieresis" unicode="&#xa8;" 
d="M218 527h-156v151h156v-151zM438 527h-155v151h155v-151z" />
    <glyph glyph-name="copyright" unicode="&#xa9;" horiz-adv-x="757" 
d="M380 139q-86 0 -137.5 55.5t-51.5 142.5q0 85 53 142t138 57q67 0 118.5 -41.5t51.5 -106.5h-94q-6 22 -28.5 31t-49.5 9q-32 0 -47.5 -27.5t-15.5 -62.5q0 -36 15 -63.5t48 -27.5q31 0 52 11t27 39h96q0 -73 -49 -115.5t-126 -42.5zM726 334q0 -143 -101 -246t-243 -103
q-144 0 -247 102t-103 247t102 247t248 102q142 0 243 -103t101 -246zM128 334q0 -106 73.5 -183.5t179.5 -77.5q104 0 176.5 78.5t72.5 182.5t-73 182t-176 78q-106 0 -179.5 -76.5t-73.5 -183.5z" />
    <glyph glyph-name="ordfeminine" unicode="&#xaa;" horiz-adv-x="464" 
d="M434 215h-411v88h411v-88zM318 653l14 1q38 0 61.5 -23.5t23.5 -61.5v-137q1 -26 2.5 -42.5t9.5 -32.5h-142q-7 15 -9 31q-5 -16 -19.5 -23.5t-33.5 -7.5h-108q-47 0 -69.5 18t-22.5 64v50q0 33 20.5 50.5t54.5 17.5h138h10q12 0 18.5 4.5t6.5 15.5q0 13 -8.5 16.5
t-23.5 3.5h-140q-38 0 -62 -14l10 70h269zM204 502q-34 0 -34 -38q0 -32 6.5 -41.5t27.5 -9.5h36q34 0 34 38v51h-70z" />
    <glyph glyph-name="guillemotleft" unicode="&#xab;" horiz-adv-x="437" 
d="M331 226l73 -226h-117l-75 226l66 227h113zM152 226l74 -226h-117l-75 226l65 227h113z" />
    <glyph glyph-name="logicalnot" unicode="&#xac;" 
d="M253 112h-220v191h433v-303h-213v112z" />
    <glyph glyph-name="registered" unicode="&#xae;" horiz-adv-x="757" 
d="M395 531q59 0 100.5 -25t41.5 -81q0 -66 -57 -94q39 -17 47 -72.5t14 -105.5h-119q-4 12 -10 75t-52 68l-1 -143h-125v378h161zM359 366q31 0 43 9.5t12 38.5q0 25 -14.5 34t-40.5 9v-91zM726 334q0 -143 -101 -246t-243 -103q-144 0 -247 102t-103 247t102 247t248 102
q142 0 243 -103t101 -246zM128 334q0 -105 74 -183t179 -78q104 0 176.5 78.5t72.5 182.5t-73 182t-176 78q-106 0 -179.5 -76.5t-73.5 -183.5z" />
    <glyph glyph-name="degree" unicode="&#xb0;" 
d="M247 336q-66 0 -117.5 48.5t-51.5 115.5q0 76 47.5 128t123.5 52q72 0 122 -51t50 -124q0 -70 -51.5 -119.5t-122.5 -49.5zM249 601q-36 0 -63 -28t-27 -64q0 -38 25.5 -66.5t63.5 -28.5q37 0 64.5 27.5t27.5 65.5q0 37 -26.5 65.5t-64.5 28.5z" />
    <glyph glyph-name="plusminus" unicode="&#xb1;" 
d="M198 421v206h102v-206h202v-98h-202v-195h-102v195h-200v98h200zM502 90v-98h-504v98h504z" />
    <glyph glyph-name="twosuperior" unicode="&#xb2;" horiz-adv-x="516" 
d="M340 667h26q51 0 74.5 -20.5t23.5 -70.5v-78q0 -88 -83 -88l-23 -1l-125 -9q-16 0 -24 -4t-8 -19v-44h179q29 0 47.5 3.5t41.5 15.5l-14 -85h-407v146q0 72 14 90t79 28l136 9l13 1q26 0 26 30t-29 30h-167q-24 0 -38.5 -3.5t-33.5 -14.5l12 84h280z" />
    <glyph glyph-name="threesuperior" unicode="&#xb3;" horiz-adv-x="516" 
d="M126 505q7 -2 14 -3t18 -1h102q21 0 27.5 5t6.5 24v38q0 33 -33 33h-135q-27 0 -44.5 -2.5t-33.5 -12.5l13 81h282q29 0 46 -3t30 -14.5t19 -29t6 -34.5v-52q0 -37 -25 -49.5t-67 -12.5q31 -5 62 -9q30 -11 30 -56v-56q0 -48 -24.5 -66t-76.5 -18h-282l-13 83
q21 -10 43 -13.5t51 -3.5h108q29 0 37 6t8 29v38q0 19 -6 24t-25 5h-102q-24 0 -36 -5v75z" />
    <glyph glyph-name="acute" unicode="&#xb4;" 
d="M269 527h-132l66 162h161z" />
    <glyph glyph-name="mu" unicode="&#xb5;" horiz-adv-x="627" 
d="M53 481h200v-232q0 -46 12.5 -74.5t52.5 -28.5q25 0 41 16t16 41l-1 44v234h200v-481h-200v44q-9 -23 -22 -37t-34 -14q-22 0 -38 12.5t-27 34.5v-214h-200v655z" />
    <glyph glyph-name="paragraph" unicode="&#xb6;" horiz-adv-x="682" 
d="M264 325q-83 0 -136 43.5t-53 125.5q0 98 64.5 135.5t168.5 37.5h274v-77h-46v-703h-100v703h-72v-703h-100v438z" />
    <glyph glyph-name="periodcentered" unicode="&#xb7;" horiz-adv-x="293" 
d="M250 148h-207v202h207v-202z" />
    <glyph glyph-name="periodcentered" unicode="&#x2219;" horiz-adv-x="293" 
d="M250 148h-207v202h207v-202z" />
    <glyph glyph-name="cedilla" unicode="&#xb8;" 
d="M358 -34l-83 -148h-133l60 149z" />
    <glyph glyph-name="onesuperior" unicode="&#xb9;" horiz-adv-x="478" 
d="M260 667h46v-349q0 -32 20 -51h-191q20 19 20 51v227h-60v68z" />
    <glyph glyph-name="ordmasculine" unicode="&#xba;" horiz-adv-x="464" 
d="M435 215h-407v88h407v-88zM315 654q55 0 82 -19.5t27 -73.5v-118q0 -46 -24.5 -65.5t-74.5 -19.5h-188q-54 0 -83.5 18.5t-29.5 70.5v125q0 37 24 60t60 23l16 -1h191zM169 449q0 -35 35 -35h41q34 0 34 37v110q0 21 -9 29t-31 8h-35q-35 0 -35 -33v-116z" />
    <glyph glyph-name="guillemotright" unicode="&#xbb;" horiz-adv-x="437" 
d="M160 453l66 -227l-75 -226h-117l73 226l-60 227h113zM339 453l65 -227l-75 -226h-117l74 226l-60 227h113z" />
    <glyph glyph-name="onequarter" unicode="&#xbc;" horiz-adv-x="1075" 
d="M261 667h46v-350q0 -31 20 -50h-191q20 19 20 50v228h-60v67zM484 0h-51l121 667h49zM1063 192v-105h-77v-36q0 -32 20 -51h-190q20 20 20 51v36h-264v96l239 217h175v-208h77zM836 327l-157 -135h157v135z" />
    <glyph glyph-name="onehalf" unicode="&#xbd;" horiz-adv-x="1075" 
d="M261 667h46v-350q0 -31 20 -50h-191q20 19 20 50v228h-60v67zM484 0h-51l121 667h49zM899 400q63 0 93.5 -16.5t30.5 -74.5v-78q0 -88 -83 -88l-24 -1l-124 -9q-16 0 -24 -4t-8 -19v-44h179q29 0 47.5 3.5t41.5 15.5l-14 -85h-407v146v32q0 45 12 61t81 25l136 9l13 1
q26 0 26 30t-29 30h-167q-24 0 -38.5 -3.5t-33.5 -14.5l12 84h280z" />
    <glyph glyph-name="threequarters" unicode="&#xbe;" horiz-adv-x="1114" 
d="M126 505q7 -2 14 -3t18 -1h102q21 0 27.5 5t6.5 24v38q0 33 -33 33h-135q-27 0 -44 -2.5t-34 -13.5l13 82h282q70 0 85.5 -27.5t15.5 -106.5q0 -31 -12.5 -41t-79.5 -21q46 0 69 -11.5t23 -52.5v-57q0 -47 -25 -65t-76 -18h-282l-13 83q21 -10 43 -13.5t51 -3.5h108h16
q29 0 29 34v39q0 19 -6 24t-25 5h-89q-13 0 -24 -0.5t-25 -4.5v75zM522 0h-51l121 667h49zM1101 192v-105h-77v-36q0 -32 20 -51h-190q20 20 20 51v36h-264v96l238 217h176v-208h77zM874 327l-157 -135h157v135z" />
    <glyph glyph-name="questiondown" unicode="&#xbf;" horiz-adv-x="820" 
d="M603 455v-89q0 -62 -26.5 -91.5t-94.5 -29.5h-79q-37 0 -51.5 -9.5t-14.5 -44.5v-32q0 -29 10.5 -39.5t40.5 -10.5h254q37 0 61.5 4.5t49.5 21.5l-19 -135h-468q-85 0 -132.5 28t-47.5 107v69q0 71 37.5 111.5t107.5 40.5h59q44 0 54 11t10 56v32h249zM605 667v-178h-251
v178h251z" />
    <glyph glyph-name="Agrave" unicode="&#xc0;" horiz-adv-x="841" 
d="M569 667l234 -589q17 -40 52 -78h-336q17 20 17 45q0 32 -18.5 71t-29.5 64h-273l-42 -91q-5 -11 -8.5 -21.5t-3.5 -21.5q0 -10 3.5 -22t9.5 -24h-187q22 26 42.5 58t37.5 67l235 502q-11 24 -27 40h294zM358 495l-93 -207h178zM456 878l66 -162h-133l-94 162h161z" />
    <glyph glyph-name="Aacute" unicode="&#xc1;" horiz-adv-x="841" 
d="M569 667l234 -589q17 -40 52 -78h-336q17 20 17 45q0 32 -18.5 71t-29.5 64h-273l-42 -91q-5 -11 -8.5 -21.5t-3.5 -21.5q0 -10 3.5 -22t9.5 -24h-187q22 26 42.5 58t37.5 67l235 502q-11 24 -27 40h294zM358 495l-93 -207h178zM427 716h-132l66 162h161z" />
    <glyph glyph-name="Acircumflex" unicode="&#xc2;" horiz-adv-x="841" 
d="M569 667l234 -589q17 -40 52 -78h-336q17 20 17 45q0 32 -18.5 71t-29.5 64h-273l-42 -91q-5 -11 -8.5 -21.5t-3.5 -21.5q0 -10 3.5 -22t9.5 -24h-187q22 26 42.5 58t37.5 67l235 502q-11 24 -27 40h294zM358 495l-93 -207h178zM545 877l63 -161h-134l-66 113l-61 -113
h-139l61 161h276z" />
    <glyph glyph-name="Atilde" unicode="&#xc3;" horiz-adv-x="841" 
d="M569 667l234 -589q17 -40 52 -78h-336q17 20 17 45q0 32 -18.5 71t-29.5 64h-273l-42 -91q-5 -11 -8.5 -21.5t-3.5 -21.5q0 -10 3.5 -22t9.5 -24h-187q22 26 42.5 58t37.5 67l235 502q-11 24 -27 40h294zM358 495l-93 -207h178zM632 882v-82q0 -48 -19 -66t-51 -18
q-33 0 -111.5 25t-112.5 25q-18 0 -25.5 -14t-7.5 -34h-120l-1 77q0 41 17 64.5t57 23.5q26 0 107.5 -25t115.5 -25q14 0 21.5 10.5t7.5 38.5h122z" />
    <glyph glyph-name="Adieresis" unicode="&#xc4;" horiz-adv-x="841" 
d="M569 667l234 -589q17 -40 52 -78h-336q17 20 17 45q0 32 -18.5 71t-29.5 64h-273l-42 -91q-5 -11 -8.5 -21.5t-3.5 -21.5q0 -10 3.5 -22t9.5 -24h-187q22 26 42.5 58t37.5 67l235 502q-11 24 -27 40h294zM358 495l-93 -207h178zM391 723h-156v151h156v-151zM611 723h-155
v151h155v-151z" />
    <glyph glyph-name="Aring" unicode="&#xc5;" horiz-adv-x="841" 
d="M569 667l234 -589q17 -40 52 -78h-336q17 20 17 45q0 32 -18.5 71t-29.5 64h-273l-42 -91q-5 -11 -8.5 -21.5t-3.5 -21.5q0 -10 3.5 -22t9.5 -24h-187q22 26 42.5 58t37.5 67l235 502q-11 24 -27 40h294zM358 495l-93 -207h178zM593 770q0 -34 -12 -44t-47 -10h-233
q-35 0 -47 10t-12 44v55q0 34 12 44t47 10h233q35 0 47 -9.5t12 -44.5v-55zM333 821q-15 0 -21 -4.5t-6 -18.5q0 -24 27 -24h173q16 0 21.5 4.5t5.5 19.5q0 14 -5.5 18.5t-21.5 4.5h-173z" />
    <glyph glyph-name="AE" unicode="&#xc6;" horiz-adv-x="1009" 
d="M658 396h192q25 0 50.5 1.5t56.5 11.5v-137q-25 9 -50 12.5t-56 3.5h-193v-178h213q62 0 125 20l-19 -130h-600q14 20 21 46.5t7 52.5v83h-185q-22 -42 -38.5 -77.5t-16.5 -56.5q0 -12 2.5 -21t14.5 -27h-195q45 46 76 110l247 519q-5 10 -12 19t-17 19h680l22 -125
q-29 8 -63 11.5t-71 3.5h-191v-161zM405 576l-138 -288h138v288z" />
    <glyph glyph-name="Ccedilla" unicode="&#xc7;" horiz-adv-x="653" 
d="M632 529q-26 18 -54.5 23t-70.5 5h-139q-51 0 -63 -15.5t-12 -69.5v-282q0 -49 19 -64.5t69 -15.5h132q36 0 66.5 4.5t60.5 16.5l-20 -131h-409q-86 0 -128.5 52t-42.5 139v284q0 88 42.5 140t128.5 52h397zM448 -34l-84 -148l-132 1l59 148z" />
    <glyph glyph-name="Egrave" unicode="&#xc8;" horiz-adv-x="683" 
d="M341 395h204q32 0 51.5 2.5t43.5 12.5v-141q-15 11 -33.5 14.5t-42.5 3.5h-223v-177h247q18 0 34 3.5t61 19.5l-22 -133h-601q14 20 21 46.5t7 52.5v469q0 30 -6.5 53.5t-21.5 45.5h587l19 -126q-25 9 -53.5 12.5t-63.5 3.5h-208v-162zM414 870l66 -162h-133l-94 162h161
z" />
    <glyph glyph-name="Eacute" unicode="&#xc9;" horiz-adv-x="683" 
d="M341 395h204q32 0 51.5 2.5t43.5 12.5v-141q-15 11 -33.5 14.5t-42.5 3.5h-223v-177h247q18 0 34 3.5t61 19.5l-22 -133h-601q14 20 21 46.5t7 52.5v469q0 30 -6.5 53.5t-21.5 45.5h587l19 -126q-25 9 -53.5 12.5t-63.5 3.5h-208v-162zM420 700h-132l66 162h161z" />
    <glyph glyph-name="Ecircumflex" unicode="&#xca;" horiz-adv-x="683" 
d="M341 395h204q32 0 51.5 2.5t43.5 12.5v-141q-15 11 -33.5 14.5t-42.5 3.5h-223v-177h247q18 0 34 3.5t61 19.5l-22 -133h-601q14 20 21 46.5t7 52.5v469q0 30 -6.5 53.5t-21.5 45.5h587l19 -126q-25 9 -53.5 12.5t-63.5 3.5h-208v-162zM508 861l63 -161h-134l-66 113
l-61 -113h-139l61 161h276z" />
    <glyph glyph-name="Edieresis" unicode="&#xcb;" horiz-adv-x="683" 
d="M341 395h204q32 0 51.5 2.5t43.5 12.5v-141q-15 11 -33.5 14.5t-42.5 3.5h-223v-177h247q18 0 34 3.5t61 19.5l-22 -133h-601q14 20 21 46.5t7 52.5v469q0 30 -6.5 53.5t-21.5 45.5h587l19 -126q-25 9 -53.5 12.5t-63.5 3.5h-208v-162zM339 707h-156v151h156v-151z
M559 707h-155v151h155v-151z" />
    <glyph glyph-name="Igrave" unicode="&#xcc;" horiz-adv-x="376" 
d="M342 667q-14 -20 -21 -46.5t-7 -52.5v-469q0 -30 6.5 -53.5t21.5 -45.5h-309q14 20 21 46.5t7 52.5v469q0 30 -6.5 53.5t-21.5 45.5h309zM248 886l66 -162h-133l-94 162h161z" />
    <glyph glyph-name="Iacute" unicode="&#xcd;" horiz-adv-x="376" 
d="M342 667q-14 -20 -21 -46.5t-7 -52.5v-469q0 -30 6.5 -53.5t21.5 -45.5h-309q14 20 21 46.5t7 52.5v469q0 30 -6.5 53.5t-21.5 45.5h309zM239 716h-132l66 162h161z" />
    <glyph glyph-name="Icircumflex" unicode="&#xce;" horiz-adv-x="376" 
d="M342 667q-14 -20 -21 -46.5t-7 -52.5v-469q0 -30 6.5 -53.5t21.5 -45.5h-309q14 20 21 46.5t7 52.5v469q0 30 -6.5 53.5t-21.5 45.5h309zM323 877l63 -161h-134l-66 113l-61 -113h-139l61 161h276z" />
    <glyph glyph-name="Idieresis" unicode="&#xcf;" horiz-adv-x="376" 
d="M342 667q-14 -20 -21 -46.5t-7 -52.5v-469q0 -30 6.5 -53.5t21.5 -45.5h-309q14 20 21 46.5t7 52.5v469q0 30 -6.5 53.5t-21.5 45.5h309zM154 723h-156v151h156v-151zM374 723h-155v151h155v-151z" />
    <glyph glyph-name="Eth" unicode="&#xd0;" horiz-adv-x="807" 
d="M74 99v189h-74v108h74v172q0 30 -6.5 53.5t-21.5 45.5h550q88 0 129.5 -51t41.5 -140v-285q0 -89 -40.5 -140t-130.5 -51h-550q14 20 21 46.5t7 52.5zM448 110q42 0 53.5 17t11.5 61v291q0 45 -11 61.5t-54 16.5h-121v-161h73v-108h-73v-178h121z" />
    <glyph glyph-name="Ntilde" unicode="&#xd1;" horiz-adv-x="850" 
d="M666 135v433q0 30 -6.5 53.5t-21.5 45.5h166q-15 -21 -21.5 -45.5t-6.5 -53.5v-568h-323l-268 542v-443q0 -30 6.5 -53.5t21.5 -45.5h-166q14 20 21 46.5t7 52.5v469q0 30 -6.5 53.5t-21.5 45.5h362zM666 866v-82q0 -48 -19 -66t-51 -18q-33 0 -111.5 25t-112.5 25
q-18 0 -25.5 -14t-7.5 -34h-120l-1 77q0 41 17 64.5t57 23.5q26 0 107.5 -25t115.5 -25q14 0 21.5 10.5t7.5 38.5h122z" />
    <glyph glyph-name="Ograve" unicode="&#xd2;" horiz-adv-x="808" 
d="M597 667q88 0 129.5 -51t41.5 -140v-285q0 -43 -7 -77.5t-44 -74t-120 -39.5h-386q-89 0 -130 50.5t-41 140.5v285q0 44 7 78t44 73.5t120 39.5h386zM293 188q0 -44 11.5 -61t54.5 -17h90q43 0 54.5 17t11.5 61v291q0 44 -11.5 61t-54.5 17h-90q-43 0 -54.5 -17
t-11.5 -61v-291zM472 870l66 -162h-133l-94 162h161z" />
    <glyph glyph-name="Oacute" unicode="&#xd3;" horiz-adv-x="808" 
d="M597 667q88 0 129.5 -51t41.5 -140v-285q0 -43 -7 -77.5t-44 -74t-120 -39.5h-386q-89 0 -130 50.5t-41 140.5v285q0 44 7 78t44 73.5t120 39.5h386zM293 188q0 -44 11.5 -61t54.5 -17h90q43 0 54.5 17t11.5 61v291q0 44 -11.5 61t-54.5 17h-90q-43 0 -54.5 -17
t-11.5 -61v-291zM463 716h-132l66 162h161z" />
    <glyph glyph-name="Ocircumflex" unicode="&#xd4;" horiz-adv-x="808" 
d="M597 667q88 0 129.5 -51t41.5 -140v-285q0 -43 -7 -77.5t-44 -74t-120 -39.5h-386q-89 0 -130 50.5t-41 140.5v285q0 44 7 78t44 73.5t120 39.5h386zM293 188q0 -44 11.5 -61t54.5 -17h90q43 0 54.5 17t11.5 61v291q0 44 -11.5 61t-54.5 17h-90q-43 0 -54.5 -17
t-11.5 -61v-291zM541 877l63 -161h-134l-66 113l-61 -113h-139l61 161h276z" />
    <glyph glyph-name="Otilde" unicode="&#xd5;" horiz-adv-x="808" 
d="M597 667q88 0 129.5 -51t41.5 -140v-285q0 -43 -7 -77.5t-44 -74t-120 -39.5h-386q-89 0 -130 50.5t-41 140.5v285q0 44 7 78t44 73.5t120 39.5h386zM293 188q0 -44 11.5 -61t54.5 -17h90q43 0 54.5 17t11.5 61v291q0 44 -11.5 61t-54.5 17h-90q-43 0 -54.5 -17
t-11.5 -61v-291zM633 882v-82q0 -48 -19 -66t-51 -18q-33 0 -111.5 25t-112.5 25q-18 0 -25.5 -14t-7.5 -34h-120l-1 77q0 41 17 64.5t57 23.5q26 0 107.5 -25t115.5 -25q14 0 21.5 10.5t7.5 38.5h122z" />
    <glyph glyph-name="Odieresis" unicode="&#xd6;" horiz-adv-x="808" 
d="M597 667q88 0 129.5 -51t41.5 -140v-285q0 -43 -7 -77.5t-44 -74t-120 -39.5h-386q-89 0 -130 50.5t-41 140.5v285q0 44 7 78t44 73.5t120 39.5h386zM293 188q0 -44 11.5 -61t54.5 -17h90q43 0 54.5 17t11.5 61v291q0 44 -11.5 61t-54.5 17h-90q-43 0 -54.5 -17
t-11.5 -61v-291zM377 723h-156v151h156v-151zM597 723h-155v151h155v-151z" />
    <glyph glyph-name="multiply" unicode="&#xd7;" 
d="M249 444l142 144l73 -73l-144 -142l142 -141l-69 -69l-141 142l-143 -144l-72 72l144 143l-141 139l70 70z" />
    <glyph glyph-name="Oslash" unicode="&#xd8;" horiz-adv-x="801" 
d="M713 705l-34 -54q83 -55 83 -152v-308q0 -43 -7 -77.5t-43.5 -74t-119.5 -39.5h-360l-62 -88l-75 53l35 53l-42 30q-22 17 -34.5 50t-12.5 98v279q0 91 40.5 141t129.5 50h367l60 90zM371 110h75q43 0 54.5 17t11.5 61v218l-201 -288q11 -4 28.5 -6t31.5 -2zM440 556h-83
q-43 0 -54.5 -16t-11.5 -62v-230l211 302q-30 6 -62 6z" />
    <glyph glyph-name="Ugrave" unicode="&#xd9;" horiz-adv-x="850" 
d="M356 667q-14 -20 -21 -46.5t-7 -52.5v-380q0 -44 11.5 -61t54.5 -17h206q42 0 53.5 17t11.5 61v380q0 29 -6.5 53.5t-21.5 45.5h166q-14 -20 -21 -46.5t-7 -52.5v-377q0 -47 -7.5 -77.5t-32 -58.5t-58.5 -41.5t-72 -13.5h-359q-86 0 -128.5 52t-42.5 139v377
q0 30 -6.5 53.5t-21.5 45.5h309zM520 878l66 -162h-133l-94 162h161z" />
    <glyph glyph-name="Uacute" unicode="&#xda;" horiz-adv-x="850" 
d="M356 667q-14 -20 -21 -46.5t-7 -52.5v-380q0 -44 11.5 -61t54.5 -17h206q42 0 53.5 17t11.5 61v380q0 29 -6.5 53.5t-21.5 45.5h166q-14 -20 -21 -46.5t-7 -52.5v-377q0 -47 -7.5 -77.5t-32 -58.5t-58.5 -41.5t-72 -13.5h-359q-86 0 -128.5 52t-42.5 139v377
q0 30 -6.5 53.5t-21.5 45.5h309zM516 716h-132l66 162h161z" />
    <glyph glyph-name="Ucircumflex" unicode="&#xdb;" horiz-adv-x="850" 
d="M356 667q-14 -20 -21 -46.5t-7 -52.5v-380q0 -44 11.5 -61t54.5 -17h206q42 0 53.5 17t11.5 61v380q0 29 -6.5 53.5t-21.5 45.5h166q-14 -20 -21 -46.5t-7 -52.5v-377q0 -47 -7.5 -77.5t-32 -58.5t-58.5 -41.5t-72 -13.5h-359q-86 0 -128.5 52t-42.5 139v377
q0 30 -6.5 53.5t-21.5 45.5h309zM609 877l63 -161h-134l-66 113l-61 -113h-139l61 161h276z" />
    <glyph glyph-name="Udieresis" unicode="&#xdc;" horiz-adv-x="850" 
d="M356 667q-14 -20 -21 -46.5t-7 -52.5v-380q0 -44 11.5 -61t54.5 -17h206q42 0 53.5 17t11.5 61v380q0 29 -6.5 53.5t-21.5 45.5h166q-14 -20 -21 -46.5t-7 -52.5v-377q0 -47 -7.5 -77.5t-32 -58.5t-58.5 -41.5t-72 -13.5h-359q-86 0 -128.5 52t-42.5 139v377
q0 30 -6.5 53.5t-21.5 45.5h309zM435 715h-156v151h156v-151zM655 715h-155v151h155v-151z" />
    <glyph glyph-name="Yacute" unicode="&#xdd;" horiz-adv-x="762" 
d="M572 572q11 17 17.5 36t6.5 38l-1 21h180q-21 -14 -35 -33.5t-36 -56.5l-199 -323v-155q0 -30 6.5 -53.5t21.5 -45.5h-307q14 20 21 46.5t7 52.5v155l-194 307q-27 45 -41 65t-33 41h335q0 -32 10.5 -55t24.5 -46l106 -171zM415 716h-132l66 162h161z" />
    <glyph glyph-name="Thorn" unicode="&#xde;" horiz-adv-x="781" 
d="M356 0h-309q14 20 21 46.5t7 52.5v469q0 15 -19.5 50t-19.5 41q0 8 11 8h281v-114h269q85 0 131 -28.5t46 -110.5v-151q0 -80 -46 -109t-131 -29h-269q0 -42 5 -70t23 -55zM456 235q44 0 54.5 16t10.5 62v70q0 33 -10 46.5t-42 13.5h-141v-208h128z" />
    <glyph glyph-name="germandbls" unicode="&#xdf;" horiz-adv-x="754" 
d="M390 451h46q29 0 40.5 8t11.5 35v38q0 24 -12 32.5t-37 8.5h-65q-39 0 -48.5 -9.5t-9.5 -40.5v-25v-374q0 -20 0.5 -39t3.5 -40t16 -45h-283q13 21 16.5 45.5t3.5 58.5v20v239h-73v96h73v63q0 68 32.5 106.5t99.5 38.5h283q89 0 142 -30t53 -112q0 -49 -28.5 -77.5
t-80.5 -37.5q76 -8 111 -41t35 -108v-109q0 -80 -44.5 -116t-127.5 -36h-162v93h33q38 0 49 12t11 50v145q0 36 -8.5 49.5t-42.5 13.5h-38v88z" />
    <glyph glyph-name="agrave" unicode="&#xe0;" horiz-adv-x="740" 
d="M520 493l24 1q62 0 102 -39t40 -102v-229q2 -43 4 -70.5t16 -53.5h-237q-7 12 -10 24.5t-5 27.5q-8 -28 -32 -40t-57 -12h-180q-77 0 -114.5 30t-37.5 106v84q0 55 35 84t90 29h230h16q21 0 31.5 7t10.5 26q0 22 -13.5 28t-39.5 6h-234q-33 0 -55.5 -4.5t-47.5 -18.5
l16 116h448zM331 241q-34 0 -45.5 -14t-11.5 -49v-22q0 -33 12 -48t45 -15h59q34 0 45.5 14t11.5 49v85h-116zM451 704l66 -162h-133l-94 162h161z" />
    <glyph glyph-name="aacute" unicode="&#xe1;" horiz-adv-x="740" 
d="M520 493l24 1q62 0 102 -39t40 -102v-229q2 -43 4 -70.5t16 -53.5h-237q-7 12 -10 24.5t-5 27.5q-8 -28 -32 -40t-57 -12h-180q-77 0 -114.5 30t-37.5 106v84q0 55 35 84t90 29h230h16q21 0 31.5 7t10.5 26q0 22 -13.5 28t-39.5 6h-234q-33 0 -55.5 -4.5t-47.5 -18.5
l16 116h448zM331 241q-34 0 -45.5 -14t-11.5 -49v-22q0 -33 12 -48t45 -15h59q34 0 45.5 14t11.5 49v85h-116zM421 542h-132l66 162h161z" />
    <glyph glyph-name="acircumflex" unicode="&#xe2;" horiz-adv-x="740" 
d="M520 493l24 1q62 0 102 -39t40 -102v-229q2 -43 4 -70.5t16 -53.5h-237q-7 12 -10 24.5t-5 27.5q-8 -28 -32 -40t-57 -12h-180q-77 0 -114.5 30t-37.5 106v84q0 55 35 84t90 29h230h16q21 0 31.5 7t10.5 26q0 22 -13.5 28t-39.5 6h-234q-33 0 -55.5 -4.5t-47.5 -18.5
l16 116h448zM331 241q-34 0 -45.5 -14t-11.5 -49v-22q0 -33 12 -48t45 -15h59q34 0 45.5 14t11.5 49v85h-116zM530 696l63 -161h-134l-66 113l-61 -113h-139l61 161h276z" />
    <glyph glyph-name="atilde" unicode="&#xe3;" horiz-adv-x="740" 
d="M520 493l24 1q62 0 102 -39t40 -102v-229q2 -43 4 -70.5t16 -53.5h-237q-7 12 -10 24.5t-5 27.5q-8 -28 -32 -40t-57 -12h-180q-77 0 -114.5 30t-37.5 106v84q0 55 35 84t90 29h230h16q21 0 31.5 7t10.5 26q0 22 -13.5 28t-39.5 6h-234q-33 0 -55.5 -4.5t-47.5 -18.5
l16 116h448zM331 241q-34 0 -45.5 -14t-11.5 -49v-22q0 -33 12 -48t45 -15h59q34 0 45.5 14t11.5 49v85h-116zM626 709v-82q0 -48 -19 -66t-51 -18q-33 0 -111.5 25t-112.5 25q-18 0 -25.5 -14t-7.5 -34h-120l-1 77q0 41 17 64.5t57 23.5q26 0 107.5 -25t115.5 -25
q14 0 21.5 10.5t7.5 38.5h122z" />
    <glyph glyph-name="adieresis" unicode="&#xe4;" horiz-adv-x="740" 
d="M520 493l24 1q62 0 102 -39t40 -102v-229q2 -43 4 -70.5t16 -53.5h-237q-7 12 -10 24.5t-5 27.5q-8 -28 -32 -40t-57 -12h-180q-77 0 -114.5 30t-37.5 106v84q0 55 35 84t90 29h230h16q21 0 31.5 7t10.5 26q0 22 -13.5 28t-39.5 6h-234q-33 0 -55.5 -4.5t-47.5 -18.5
l16 116h448zM331 241q-34 0 -45.5 -14t-11.5 -49v-22q0 -33 12 -48t45 -15h59q34 0 45.5 14t11.5 49v85h-116zM351 543h-156v151h156v-151zM571 543h-155v151h155v-151z" />
    <glyph glyph-name="aring" unicode="&#xe5;" horiz-adv-x="740" 
d="M520 493l24 1q62 0 102 -39t40 -102v-229q2 -43 4 -70.5t16 -53.5h-237q-7 12 -10 24.5t-5 27.5q-8 -28 -32 -40t-57 -12h-180q-77 0 -114.5 30t-37.5 106v84q0 55 35 84t90 29h230h16q21 0 31.5 7t10.5 26q0 22 -13.5 28t-39.5 6h-234q-33 0 -55.5 -4.5t-47.5 -18.5
l16 116h448zM331 241q-34 0 -45.5 -14t-11.5 -49v-22q0 -33 12 -48t45 -15h59q34 0 45.5 14t11.5 49v85h-116zM553 597q0 -34 -12 -44t-47 -10h-233q-35 0 -47 10t-12 44v55q0 34 12 44t47 10h233q35 0 47 -9.5t12 -44.5v-55zM293 648q-15 0 -21 -4.5t-6 -18.5q0 -24 27 -24
h173q16 0 21.5 4.5t5.5 19.5q0 14 -5.5 18.5t-21.5 4.5h-173z" />
    <glyph glyph-name="ae" unicode="&#xe6;" horiz-adv-x="1125" 
d="M895 493l36 1q85 0 122.5 -37.5t37.5 -123.5v-134h-408v-54q0 -31 18.5 -41.5t52.5 -10.5h181q47 0 81 5t67 20l-18 -118h-443q-54 0 -87.5 8t-57.5 39q-18 -26 -35 -36.5t-48 -10.5h-197l-65 3q-44 0 -71.5 34.5t-27.5 80.5v101q0 58 34 86t92 28h218h20q24 0 36 6
t12 28q0 21 -13.5 27t-38.5 6h-227q-47 0 -67.5 -5t-44.5 -19l19 117h822zM324 240q-26 0 -38 -8.5t-12 -32.5v-51q0 -55 58 -55h43q40 0 55 13t15 51v83h-121zM853 350q0 31 -10.5 40.5t-42.5 9.5h-66q-31 0 -41 -8.5t-10 -39.5v-60h170v58z" />
    <glyph glyph-name="ccedilla" unicode="&#xe7;" horiz-adv-x="600" 
d="M587 375q-20 13 -46.5 19t-51.5 6h-146q-36 0 -52 -11.5t-16 -46.5v-197q0 -32 18 -42t52 -10h138q31 0 54.5 6t49.5 22l-20 -121h-361q-14 0 -33 2t-36 4q-46 10 -75 47t-29 84v223q0 68 47.5 100.5t118.5 32.5h368zM418 -34l-84 -148l-132 1l59 148z" />
    <glyph glyph-name="egrave" unicode="&#xe8;" horiz-adv-x="714" 
d="M274 199v-41q0 -41 15.5 -53t58.5 -12h219q32 0 57.5 4.5t48.5 18.5l-18 -116h-439q-95 0 -138.5 36t-43.5 131v159q0 89 40 128t128 39h303q94 0 135 -35.5t41 -129.5v-129h-407zM443 346q0 35 -9.5 44.5t-29.5 9.5h-95q-20 0 -27.5 -11.5t-7.5 -36.5v-59h169v53z
M424 704l66 -162h-133l-94 162h161z" />
    <glyph glyph-name="eacute" unicode="&#xe9;" horiz-adv-x="714" 
d="M274 199v-41q0 -41 15.5 -53t58.5 -12h219q32 0 57.5 4.5t48.5 18.5l-18 -116h-439q-95 0 -138.5 36t-43.5 131v159q0 89 40 128t128 39h303q94 0 135 -35.5t41 -129.5v-129h-407zM443 346q0 35 -9.5 44.5t-29.5 9.5h-95q-20 0 -27.5 -11.5t-7.5 -36.5v-59h169v53z
M410 542h-132l66 162h161z" />
    <glyph glyph-name="ecircumflex" unicode="&#xea;" horiz-adv-x="714" 
d="M274 199v-41q0 -41 15.5 -53t58.5 -12h219q32 0 57.5 4.5t48.5 18.5l-18 -116h-439q-95 0 -138.5 36t-43.5 131v159q0 89 40 128t128 39h303q94 0 135 -35.5t41 -129.5v-129h-407zM443 346q0 35 -9.5 44.5t-29.5 9.5h-95q-20 0 -27.5 -11.5t-7.5 -36.5v-59h169v53z
M503 704l63 -161h-134l-66 113l-61 -113h-139l61 161h276z" />
    <glyph glyph-name="edieresis" unicode="&#xeb;" horiz-adv-x="714" 
d="M274 199v-41q0 -41 15.5 -53t58.5 -12h219q32 0 57.5 4.5t48.5 18.5l-18 -116h-439q-95 0 -138.5 36t-43.5 131v159q0 89 40 128t128 39h303q94 0 135 -35.5t41 -129.5v-129h-407zM443 346q0 35 -9.5 44.5t-29.5 9.5h-95q-20 0 -27.5 -11.5t-7.5 -36.5v-59h169v53z
M329 551h-156v151h156v-151zM549 551h-155v151h155v-151z" />
    <glyph glyph-name="igrave" unicode="&#xec;" horiz-adv-x="362" 
d="M302 124v-39t2.5 -36t6 -25.5t11.5 -23.5h-282q13 23 16.5 49.5t3.5 63.5v11v245v21v37q-3 15 -5 30t-15 36h262v-369zM259 704l66 -162h-133l-94 162h161z" />
    <glyph glyph-name="iacute" unicode="&#xed;" horiz-adv-x="362" 
d="M302 124v-39t2.5 -36t6 -25.5t11.5 -23.5h-282q13 23 16.5 49.5t3.5 63.5v11v245v21v37q-3 15 -5 30t-15 36h262v-369zM240 542h-132l66 162h161z" />
    <glyph glyph-name="icircumflex" unicode="&#xee;" horiz-adv-x="362" 
d="M302 124v-39t2.5 -36t6 -25.5t11.5 -23.5h-282q13 23 16.5 49.5t3.5 63.5v11v245v21v37q-3 15 -5 30t-15 36h262v-369zM313 696l63 -161h-134l-66 113l-61 -113h-139l61 161h276z" />
    <glyph glyph-name="idieresis" unicode="&#xef;" horiz-adv-x="362" 
d="M302 124v-39t2.5 -36t6 -25.5t11.5 -23.5h-282q13 23 16.5 49.5t3.5 63.5v11v245v21v37q-3 15 -5 30t-15 36h262v-369zM144 535h-156v151h156v-151zM364 535h-155v151h155v-151z" />
    <glyph glyph-name="eth" unicode="&#xf0;" horiz-adv-x="596" 
d="M46 683q49 -6 94.5 -15t88.5 -22l132 85l37 -59l-91 -56q124 -60 196 -148t72 -213q0 -124 -76 -198t-201 -74q-115 0 -191 77t-76 191q0 55 23.5 105t64 83t74.5 44.5t69 23.5q-10 10 -25 20.5t-34 22.5l-119 -76l-37 58l91 55q-22 10 -53.5 18.5t-63.5 14.5zM232 248
q0 -54 13 -91t57 -37q55 0 64 43t9 82q0 68 -13.5 97.5t-40.5 29.5q-48 0 -68.5 -36t-20.5 -88z" />
    <glyph glyph-name="ntilde" unicode="&#xf1;" horiz-adv-x="764" 
d="M286 444q15 28 34.5 38.5t53.5 10.5h180q77 0 116.5 -42.5t39.5 -120.5v-206q0 -46 3 -71.5t17 -52.5h-282q13 21 16.5 45.5t3.5 58.5v20v215q0 33 -9.5 47t-41.5 14h-73q-43 0 -43 -48v-228q0 -46 3 -71.5t17 -52.5h-281q13 23 16.5 49.5t3.5 63.5v11v245v21v37
q-3 15 -5 30t-15 36h236zM626 709v-82q0 -48 -19 -66t-51 -18q-33 0 -111.5 25t-112.5 25q-18 0 -25.5 -14t-7.5 -34h-120l-1 77q0 41 17 64.5t57 23.5q26 0 107.5 -25t115.5 -25q14 0 21.5 10.5t7.5 38.5h122z" />
    <glyph glyph-name="ograve" unicode="&#xf2;" horiz-adv-x="735" 
d="M519 493q92 0 137.5 -33.5t45.5 -122.5v-196q0 -68 -36 -105t-106 -37l-24 1h-313q-93 0 -141 29.5t-48 117.5v209q0 60 40 99t100 39l27 -1h318zM277 151q0 -33 12.5 -45.5t45.5 -12.5h68q32 0 44.5 14.5t12.5 46.5v184q0 34 -15 48t-52 14h-58q-58 0 -58 -55v-194z
M450 704l66 -162h-133l-94 162h161z" />
    <glyph glyph-name="oacute" unicode="&#xf3;" horiz-adv-x="735" 
d="M519 493q92 0 137.5 -33.5t45.5 -122.5v-196q0 -68 -36 -105t-106 -37l-24 1h-313q-93 0 -141 29.5t-48 117.5v209q0 60 40 99t100 39l27 -1h318zM277 151q0 -33 12.5 -45.5t45.5 -12.5h68q32 0 44.5 14.5t12.5 46.5v184q0 34 -15 48t-52 14h-58q-58 0 -58 -55v-194z
M421 542h-132l66 162h161z" />
    <glyph glyph-name="ocircumflex" unicode="&#xf4;" horiz-adv-x="735" 
d="M519 493q92 0 137.5 -33.5t45.5 -122.5v-196q0 -68 -36 -105t-106 -37l-24 1h-313q-93 0 -141 29.5t-48 117.5v209q0 60 40 99t100 39l27 -1h318zM277 151q0 -33 12.5 -45.5t45.5 -12.5h68q32 0 44.5 14.5t12.5 46.5v184q0 34 -15 48t-52 14h-58q-58 0 -58 -55v-194z
M499 704l63 -161h-134l-66 113l-61 -113h-139l61 161h276z" />
    <glyph glyph-name="otilde" unicode="&#xf5;" horiz-adv-x="735" 
d="M519 493q92 0 137.5 -33.5t45.5 -122.5v-196q0 -68 -36 -105t-106 -37l-24 1h-313q-93 0 -141 29.5t-48 117.5v209q0 60 40 99t100 39l27 -1h318zM277 151q0 -33 12.5 -45.5t45.5 -12.5h68q32 0 44.5 14.5t12.5 46.5v184q0 34 -15 48t-52 14h-58q-58 0 -58 -55v-194z
M586 693v-82q0 -48 -19 -66t-51 -18q-33 0 -111.5 25t-112.5 25q-18 0 -25.5 -14t-7.5 -34h-120l-1 77q0 41 17 64.5t57 23.5q26 0 107.5 -25t115.5 -25q14 0 21.5 10.5t7.5 38.5h122z" />
    <glyph glyph-name="odieresis" unicode="&#xf6;" horiz-adv-x="738" 
d="M519 493q92 0 137.5 -33.5t45.5 -122.5v-196q0 -68 -36 -105t-106 -37l-24 1h-313q-93 0 -141 29.5t-48 117.5v209q0 60 40 99t100 39l27 -1h318zM277 151q0 -33 12.5 -45.5t45.5 -12.5h68q32 0 44.5 14.5t12.5 46.5v184q0 34 -15 48t-52 14h-58q-58 0 -58 -55v-194z
M331 543h-156v151h156v-151zM551 543h-155v151h155v-151z" />
    <glyph glyph-name="divide" unicode="&#xf7;" 
d="M502 423v-98h-504v98h504zM321 536q0 -29 -21 -50t-50 -21t-50 21t-21 50t21 50t50 21t50 -21t21 -50zM320 211q0 -29 -20 -50t-50 -21q-29 0 -50 21t-21 50q0 28 21 49t50 21t49.5 -20.5t20.5 -49.5z" />
    <glyph glyph-name="oslash" unicode="&#xf8;" horiz-adv-x="734" 
d="M596 529l-25 -38q64 0 97 -40.5t33 -105.5v-215q0 -69 -41.5 -99.5t-113.5 -30.5h-322l-47 -67l-50 36l22 31q-62 7 -88.5 46t-26.5 105v207q0 76 49 106t128 30h289l48 70zM333 94h63q37 0 50.5 12.5t13.5 47.5v179l-166 -234q9 -3 23 -4t16 -1zM390 400h-53
q-30 0 -46 -12t-16 -42v-164l155 214q-7 2 -19.5 3t-20.5 1z" />
    <glyph glyph-name="ugrave" unicode="&#xf9;" horiz-adv-x="766" 
d="M706 124v-39t2.5 -36t6 -25.5t11.5 -23.5h-228l-10 46q-12 -29 -32.5 -37.5t-57.5 -8.5h-186q-92 0 -125 38.5t-33 132.5v198v21v37q-3 15 -5 30t-15 36h261v-334q0 -34 10.5 -50t42.5 -16h58q35 0 47 12t12 48v216q0 45 -2.5 68t-6.5 33t-11 23h261v-369zM444 688
l66 -162h-133l-94 162h161z" />
    <glyph glyph-name="uacute" unicode="&#xfa;" horiz-adv-x="766" 
d="M706 124v-39t2.5 -36t6 -25.5t11.5 -23.5h-228l-10 46q-12 -29 -32.5 -37.5t-57.5 -8.5h-186q-92 0 -125 38.5t-33 132.5v198v21v37q-3 15 -5 30t-15 36h261v-334q0 -34 10.5 -50t42.5 -16h58q35 0 47 12t12 48v216q0 45 -2.5 68t-6.5 33t-11 23h261v-369zM435 526h-132
l66 162h161z" />
    <glyph glyph-name="ucircumflex" unicode="&#xfb;" horiz-adv-x="766" 
d="M706 124v-39t2.5 -36t6 -25.5t11.5 -23.5h-228l-10 46q-12 -29 -32.5 -37.5t-57.5 -8.5h-186q-92 0 -125 38.5t-33 132.5v198v21v37q-3 15 -5 30t-15 36h261v-334q0 -34 10.5 -50t42.5 -16h58q35 0 47 12t12 48v216q0 45 -2.5 68t-6.5 33t-11 23h261v-369zM518 688
l63 -161h-134l-66 113l-61 -113h-139l61 161h276z" />
    <glyph glyph-name="udieresis" unicode="&#xfc;" horiz-adv-x="766" 
d="M706 124v-39t2.5 -36t6 -25.5t11.5 -23.5h-228l-10 46q-12 -29 -32.5 -37.5t-57.5 -8.5h-186q-92 0 -125 38.5t-33 132.5v198v21v37q-3 15 -5 30t-15 36h261v-334q0 -34 10.5 -50t42.5 -16h58q35 0 47 12t12 48v216q0 45 -2.5 68t-6.5 33t-11 23h261v-369zM346 527h-156
v151h156v-151zM566 527h-155v151h155v-151z" />
    <glyph glyph-name="yacute" unicode="&#xfd;" horiz-adv-x="747" 
d="M295 170q0 -44 12 -60.5t53 -16.5h62q34 0 39 25.5t5 47.5v203v15q0 37 -3.5 60.5t-16.5 48.5h261v-493l1 -30q0 -105 -52 -132t-169 -27h-401l-19 119q25 -14 51.5 -18t66.5 -4h11h216q35 0 44.5 14.5t9.5 52.5v57q-13 -20 -36 -26t-56 -6h-140q-101 0 -141 47t-40 151
v171v21v37q-3 15 -5 28.5t-15 37.5h262v-323zM425 534h-132l66 162h161z" />
    <glyph glyph-name="thorn" unicode="&#xfe;" horiz-adv-x="739" 
d="M44 667h234v-218q16 27 40 36t61 9h172q75 0 115 -34.5t40 -109.5v-213q0 -62 -33.5 -99.5t-95.5 -37.5h-198q-57 0 -82 46v-95q0 -46 3 -71.5t17 -52.5h-261v769q0 22 -2 37.5t-10 33.5zM411 94q33 0 43.5 15t10.5 50v183v13q0 45 -51 45h-66q-51 0 -51 -56v-198
q0 -29 14.5 -40.5t45.5 -11.5h54z" />
    <glyph glyph-name="ydieresis" unicode="&#xff;" horiz-adv-x="747" 
d="M295 170q0 -44 12 -60.5t53 -16.5h62q34 0 39 25.5t5 47.5v203v15q0 37 -3.5 60.5t-16.5 48.5h261v-493l1 -30q0 -105 -52 -132t-169 -27h-401l-19 119q25 -14 51.5 -18t66.5 -4h11h216q35 0 44.5 14.5t9.5 52.5v57q-13 -20 -36 -26t-56 -6h-140q-101 0 -141 47t-40 151
v171v21v37q-3 15 -5 28.5t-15 37.5h262v-323zM334 543h-156v151h156v-151zM554 543h-155v151h155v-151z" />
    <glyph glyph-name="OE" unicode="&#x152;" horiz-adv-x="1119" 
d="M767 397h209q49 0 91 16v-139q-23 9 -52.5 12.5t-61.5 3.5h-186v-180h220q32 0 61.5 5t57.5 17l-22 -132h-873q-86 0 -128.5 52t-42.5 139v285q0 88 42 139.5t129 51.5h856l24 -124q-26 9 -52 11.5t-63 2.5h-209v-160zM293 188q0 -44 11.5 -61t54.5 -17h88q43 0 54.5 17
t11.5 61v291q0 44 -11.5 61t-54.5 17h-88q-43 0 -54.5 -17t-11.5 -61v-291z" />
    <glyph glyph-name="oe" unicode="&#x153;" horiz-adv-x="1143" 
d="M702 201v-53q0 -29 16 -42t45 -13h203q55 0 83 6t54 19l-20 -118h-843q-113 0 -159.5 30t-46.5 138v164q0 80 37 121t116 41l38 -1h700q100 0 142.5 -36t42.5 -135v-121h-408zM871 294v65q0 26 -9.5 33.5t-36.5 7.5h-78q-26 0 -35.5 -7.5t-9.5 -33.5v-65h169zM276 168
q0 -41 11.5 -58t50.5 -17h60q38 0 50 17.5t12 57.5v158q0 41 -11.5 57.5t-50.5 16.5h-60q-38 0 -50 -17.5t-12 -56.5v-158z" />
    <glyph glyph-name="Scaron" unicode="&#x160;" horiz-adv-x="737" 
d="M679 531q-22 15 -48.5 20.5t-59.5 5.5h-230q-22 0 -33.5 -7t-11.5 -28v-23q0 -27 11 -33.5t42 -6.5h164q89 0 133 -27.5t44 -111.5v-182q0 -78 -47.5 -108t-129.5 -30h-442l-23 134q26 -15 56.5 -19.5t67.5 -4.5h20h194h19q21 0 28.5 7.5t7.5 27.5v21q0 22 -5.5 31.5
t-24.5 9.5h-188q-91 0 -134 26.5t-43 111.5v183q0 78 48 108.5t129 30.5h432zM267 716l-63 160l134 1l65 -113l62 113l139 -1l-61 -160h-276z" />
    <glyph glyph-name="scaron" unicode="&#x161;" horiz-adv-x="689" 
d="M648 369q-28 21 -52.5 26t-68.5 5h-205h-11q-15 0 -24 -4t-9 -18q0 -11 8.5 -17.5t20.5 -6.5l12 1h190q74 0 110.5 -32.5t36.5 -105.5v-70q0 -79 -48 -113t-131 -34h-422l-22 126q41 -21 66.5 -27t72.5 -6h211q20 0 32 5t12 23q0 15 -11 20.5t-27 5.5h-214
q-128 0 -128 130v78q0 82 55 110t145 28h378zM240 543l-63 160l134 1l65 -113l62 113l139 -1l-61 -160h-276z" />
    <glyph glyph-name="Ydieresis" unicode="&#x178;" horiz-adv-x="762" 
d="M572 572q11 17 17.5 36t6.5 38l-1 21h180q-21 -14 -35 -33.5t-36 -56.5l-199 -323v-155q0 -30 6.5 -53.5t21.5 -45.5h-307q14 20 21 46.5t7 52.5v155l-194 307q-27 45 -41 65t-33 41h335q0 -32 10.5 -55t24.5 -46l106 -171zM354 715h-156v151h156v-151zM574 715h-155v151
h155v-151z" />
    <glyph glyph-name="florin" unicode="&#x192;" horiz-adv-x="678" 
d="M533 308h-87l-49 -276q-19 -111 -70.5 -149t-166.5 -38l-80 2l23 139q61 0 69 11t25 80l41 231h-84l20 121h86l19 109q19 108 73 147t166 39l81 -2l-24 -140h-37q-26 0 -36 -10t-14 -36l-18 -107h83z" />
    <glyph glyph-name="circumflex" unicode="&#x2c6;" 
d="M387 688l63 -161h-134l-66 113l-61 -113h-139l61 161h276z" />
    <glyph glyph-name="endash" unicode="&#x2013;" horiz-adv-x="715" 
d="M682 209h-648v125h648v-125z" />
    <glyph glyph-name="emdash" unicode="&#x2014;" horiz-adv-x="1128" 
d="M1095 209h-1062v125h1062v-125z" />
    <glyph glyph-name="quoteleft" unicode="&#x2018;" horiz-adv-x="396" 
d="M73 351v170l133 146h83l-69 -137h102v-179h-249z" />
    <glyph glyph-name="quoteright" unicode="&#x2019;" horiz-adv-x="396" 
d="M322 667v-170l-133 -146h-83l70 137h-103v179h249z" />
    <glyph glyph-name="quotesinglbase" unicode="&#x201a;" horiz-adv-x="396" 
d="M322 179v-170l-133 -146h-83l70 137h-103v179h249z" />
    <glyph glyph-name="quotedblleft" unicode="&#x201c;" horiz-adv-x="686" 
d="M74 351v170l133 146h83l-69 -137h102v-179h-249zM363 351v170l134 146h83l-70 -137h103v-179h-250z" />
    <glyph glyph-name="quotedblright" unicode="&#x201d;" horiz-adv-x="686" 
d="M323 667v-170l-133 -146h-83l70 137h-103v179h249zM613 667v-170l-134 -146h-82l69 137h-103v179h250z" />
    <glyph glyph-name="quotedblbase" unicode="&#x201e;" horiz-adv-x="686" 
d="M323 179v-170l-133 -146h-83l70 137h-103v179h249zM613 179v-170l-134 -146h-82l69 137h-103v179h250z" />
    <glyph glyph-name="dagger" unicode="&#x2020;" horiz-adv-x="682" 
d="M601 328h-162v-483h-197v483h-161v171h161v168h197v-168h162v-171z" />
    <glyph glyph-name="daggerdbl" unicode="&#x2021;" horiz-adv-x="682" 
d="M601 337h-162v-161h162v-165h-162v-166h-196v166h-162v165h162v161h-162v166h162v164h196v-164h162v-166z" />
    <glyph glyph-name="bullet" unicode="&#x2022;" horiz-adv-x="600" 
d="M294 382q40 0 69 -28t29 -68t-28 -68t-70 -28q-40 0 -68 28t-28 68t28 68t68 28z" />
    <glyph glyph-name="ellipsis" unicode="&#x2026;" horiz-adv-x="1192" 
d="M324 178v-178h-251v178h251zM721 178v-178h-251v178h251zM1119 178v-178h-251v178h251z" />
    <glyph glyph-name="perthousand" unicode="&#x2030;" horiz-adv-x="1440" 
d="M407 410q0 -48 -30 -71t-80 -23h-175q-49 0 -79.5 24t-30.5 73v181q0 49 30 71.5t80 22.5h175q51 0 80.5 -21.5t29.5 -72.5v-184zM183 624q-31 0 -40.5 -9.5t-9.5 -42.5v-141q0 -31 9.5 -41.5t40.5 -10.5h53q32 0 41 10t9 42v141q0 32 -9 42t-41 10h-53zM941 92
q0 -48 -30 -71t-80 -23h-175q-50 0 -80 22.5t-30 71.5v184q0 49 30 71.5t80 22.5h175q51 0 80.5 -21.5t29.5 -72.5v-184zM717 306q-31 0 -40.5 -9.5t-9.5 -42.5v-141q0 -31 9.5 -41.5t40.5 -10.5h53q32 0 41 10t9 42v141q0 32 -9 42t-41 10h-53zM1373 92q0 -48 -30 -71
t-80 -23h-175q-50 0 -80 22.5t-30 71.5v184q0 49 30 71.5t80 22.5h175q51 0 80.5 -21.5t29.5 -72.5v-184zM1149 306q-31 0 -40.5 -9.5t-9.5 -42.5v-141q0 -31 9.5 -41.5t40.5 -10.5h53q30 0 40 12t10 40v141q0 24 -10.5 38t-39.5 14h-53zM439 0h-51l121 667h49z" />
    <glyph glyph-name="guilsinglleft" unicode="&#x2039;" horiz-adv-x="258" 
d="M151 226l74 -226h-117l-75 226l65 227h113z" />
    <glyph glyph-name="guilsinglright" unicode="&#x203a;" horiz-adv-x="258" 
d="M159 453l66 -227l-75 -226h-117l73 226l-60 227h113z" />
    <glyph glyph-name="trademark" unicode="&#x2122;" horiz-adv-x="1094" 
d="M134 329v266h-69q-21 0 -32.5 -2.5t-27.5 -12.5l14 87h395l14 -87q-14 8 -28 11.5t-32 3.5h-70v-266q0 -35 21 -62h-205q20 26 20 62zM840 667h222q-20 -26 -20 -62v-276q0 -36 20 -62h-206q21 25 21 62v218l-100 -280h-118l-98 280v-218q0 -36 20 -62h-117q21 27 21 62
v276q0 35 -21 62h223l76 -216z" />
    <glyph glyph-name="fraction" horiz-adv-x="81" 
d="M6 0h-51l121 667h49z" />
    <glyph glyph-name="fi" horiz-adv-x="838" 
d="M469 400h-166v-276v-39t3.5 -40.5t16.5 -44.5h-282q13 23 16.5 49.5t3.5 63.5v11v276h-68v93h68v38q0 60 37 98t98 38h44h271l19 -116q-35 21 -75 21h-104q-27 0 -37.5 -10.5t-10.5 -37.5v-31h166v-93zM778 542h-241v125h241v-125zM778 124q0 -20 0.5 -39t3.5 -40t16 -45
h-281q13 23 16.5 49.5t3.5 63.5v11v245q0 45 -2.5 68t-6.5 33t-11 23h261v-369z" />
    <glyph glyph-name="fl" horiz-adv-x="838" 
d="M469 400h-166v-276v-39t3.5 -40.5t16.5 -44.5h-282q13 23 16.5 49.5t3.5 63.5v11v276h-68v93h68v38q0 60 37 98t98 38h44h271l19 -116q-35 21 -75 21h-104q-27 0 -37.5 -10.5t-10.5 -37.5v-31h166v-93zM778 124v-39t2.5 -36t6 -25.5t11.5 -23.5h-281q13 23 16.5 49.5
t3.5 63.5v11v419v15q0 37 -3.5 60.5t-16.5 48.5h261v-543z" />
    <glyph glyph-name="dotlessi" horiz-adv-x="362" 
d="M302 124v-39t2.5 -36t6 -25.5t11.5 -23.5h-282q13 23 16.5 49.5t3.5 63.5v11v245v21v37q-3 15 -5 30t-15 36h262v-369z" />
    <glyph glyph-name="tilde" 
d="M475 692v-82q0 -48 -19 -66t-51 -18q-33 0 -111.5 25t-112.5 25q-18 0 -25.5 -14t-7.5 -34h-120l-1 77q0 41 17 64.5t57 23.5q26 0 107.5 -25t115.5 -25q14 0 21.5 10.5t7.5 38.5h122z" />
    <glyph glyph-name="macron" 
d="M413 587h-327v86h327v-86z" />
    <glyph glyph-name="breve" 
d="M489 689v-54q0 -52 -23.5 -80t-76.5 -28h-276q-49 0 -74.5 28.5t-25.5 78.5v55h126q0 -46 4.5 -55.5t33.5 -9.5h148q15 0 24 4.5t10.5 14.5t2 22.5t1.5 23.5h126z" />
    <glyph glyph-name="dotaccent" 
d="M335 563h-170v132h170v-132z" />
    <glyph glyph-name="ring" 
d="M426 581q0 -34 -12 -44t-47 -10h-233q-35 0 -47 10t-12 44v55q0 34 12 44t47 10h233q35 0 47 -9.5t12 -44.5v-55zM166 632q-15 0 -21 -4.5t-6 -18.5q0 -24 27 -24h173q16 0 21.5 4.5t5.5 19.5q0 14 -5.5 18.5t-21.5 4.5h-173z" />
    <glyph glyph-name="hungarumlaut" 
d="M224 546h-99l38 143h162zM411 546h-100l38 143h162z" />
    <glyph glyph-name="ogonek" 
d="M507 0q-24 -18 -39 -36.5t-15 -42.5q0 -20 17 -31t39 -11q10 0 28 4v-70q-15 -4 -32.5 -7t-33.5 -3q-46 0 -79 24.5t-33 68.5q0 30 16.5 54.5t46.5 49.5h85z" />
    <glyph glyph-name="caron" 
d="M113 527l-63 160l134 1l65 -113l62 113l139 -1l-61 -160h-276z" />
    <glyph glyph-name="Lslash" horiz-adv-x="651" 
d="M630 0h-583q14 20 21 46.5t7 52.5v141l-75 -31v106l75 32v221q0 30 -6.5 53.5t-21.5 45.5h310q-15 -21 -21.5 -45.5t-6.5 -53.5v-116l77 33v-107l-77 -33v-235h238q26 0 45.5 5.5t38.5 19.5z" />
    <glyph glyph-name="lslash" horiz-adv-x="361" 
d="M301 124q0 -20 0.5 -39t3.5 -40t16 -45h-281q13 23 16.5 49.5t3.5 63.5v11v119l-60 -22l-1 107l61 22v193v21v36q-3 16 -4.5 26t-4.5 18t-11 23h261v-230l60 22v-108l-60 -21v-206z" />
    <glyph glyph-name="Zcaron" horiz-adv-x="702" 
d="M357 110h200q32 0 56.5 3.5t46.5 14.5l-18 -128h-642l341 557h-169q-41 0 -69.5 -5t-54.5 -21l22 136h632zM234 716l-63 160l134 1l65 -113l62 113l139 -1l-61 -160h-276z" />
    <glyph glyph-name="zcaron" horiz-adv-x="668" 
d="M372 93h173q38 0 66.5 5.5t56.5 22.5l-17 -121h-651l295 400h-145q-59 0 -86 -6t-57 -20l17 119h635zM217 543l-63 160l134 1l65 -113l62 113l139 -1l-61 -160h-276z" />
    <glyph glyph-name="minus" 
d="M502 423v-98h-504v98h504z" />
  </font>
</defs>
</svg>
